osu file format v12

[General]
AudioFilename: Zhi Shang Li He - Mian Hua Tang.mp3
AudioLeadIn: 0
PreviewTime: 57772
Countdown: 0
SampleSet: Soft
StackLeniency: 0.7
Mode: 0
LetterboxInBreaks: 1
WidescreenStoryboard: 0

[Editor]
DistanceSpacing: 1.4
BeatDivisor: 4
GridSize: 4

[Metadata]
Title:Mian Hua Tang
TitleUnicode:棉花糖
Artist:Top Combine
ArtistUnicode:至上励合
Creator:CET 6
Version:Normal
Source:
Tags:marshmallow cotton candy zhi shang li he
BeatmapID:301965
BeatmapSetID:117143

[Difficulty]
HPDrainRate:3
CircleSize:3
OverallDifficulty:3
ApproachRate:4
SliderMultiplier:1.4
SliderTickRate:1

[Events]
//Background and Video events
0,0,"BG.jpg",0,0
//Break Periods
//Storyboard Layer 0 (Background)
//Storyboard Layer 1 (Fail)
//Storyboard Layer 2 (Pass)
//Storyboard Layer 3 (Foreground)
//Storyboard Sound Samples
//Background Colour Transformations
3,100,163,162,255

[TimingPoints]
512,612.244897959184,4,2,2,70,1,0
512,-100,4,2,2,40,0,0
1124,-100,4,2,2,60,0,0
17654,-100,4,2,2,40,0,0
18267,-100,4,2,2,5,0,0
19491,-100,4,2,2,60,0,0
39083,-100,4,2,2,40,0,0
39695,-100,4,2,2,60,0,0
59287,-100,4,2,1,50,0,0
59593,-100,4,2,1,70,0,0
78879,-100,4,2,1,50,0,1
79185,-100,4,2,1,70,0,1
96787,-100,4,2,1,5,0,1
98471,-100,4,2,1,60,0,0
116838,-100,4,2,1,30,0,0
118063,-100,4,2,2,60,0,0
135205,-100,4,2,2,40,0,0
135818,-100,4,2,2,5,0,0

[Colours]
Combo1 : 255,255,128
Combo2 : 128,255,128
Combo3 : 157,201,255
Combo4 : 245,65,92

[HitObjects]
256,80,512,1,4,0:1:0:0:
128,192,1124,1,2,0:0:0:0:
256,304,1736,2,0,P|323:288|391:304,2,140,0|2|0,0:0|0:0|0:0,0:0:0:0:
359,175,3573,2,0,P|426:190|494:174,1,140,2|0,0:0|0:0,0:0:0:0:
424,24,4797,1,2,0:0:0:0:
256,48,5409,6,0,P|239:115|257:182,1,140,0|2,0:0|0:0,0:0:0:0:
426,182,6634,2,0,P|443:249|425:316,1,140,0|2,0:0|0:0,0:0:0:0:
256,316,7858,2,0,L|181:312,1,70
141,240,8471,2,0,L|66:236,1,70,2|0,0:0|0:0,0:0:0:0:
113,155,9083,2,0,P|175:123|208:62,1,140,0|2,0:0|0:0,0:0:0:0:
383,64,10307,6,0,P|415:124|477:154,1,140,0|2,0:0|0:0,0:0:0:0:
472,328,11532,2,0,P|439:267|377:237,2,140,0|2|0,0:0|0:0|0:0,0:0:0:0:
304,328,13369,1,2,0:0:0:0:
304,328,13981,2,0,P|242:297|209:237,1,140,0|2,0:0|0:0,0:0:0:0:
88,120,15205,6,0,L|0:144,2,70,0|0|2,0:0|0:0|0:0,0:0:0:0:
256,128,16430,2,0,L|323:109,1,70
315,194,17042,2,0,P|381:216|447:195,1,140,2|4,0:0|0:1,0:0:0:0:
256,192,18267,12,2,19491,0:0:0:0:
256,192,20103,6,0,P|256:152|184:64,1,140,0|2,0:0|0:0,0:0:0:0:
112,184,21328,2,0,B|48:192|24:256|24:256|-16:256,1,140,0|2,0:0|0:0,0:0:0:0:
144,304,22552,2,0,P|211:320|279:304,1,140,0|2,0:0|0:0,0:0:0:0:
392,216,23777,2,0,L|432:280,2,70,0|0|2,0:0|0:0|0:0,0:0:0:0:
384,72,25001,6,0,P|312:96|270:146,1,140,0|2,0:0|0:0,0:0:0:0:
133,168,26226,2,0,P|157:240|221:272,1,140,0|2,0:0|0:0,0:0:0:0:
336,328,27450,2,0,L|488:328,1,140,0|2,0:0|0:0,0:0:0:0:
408,208,28675,2,0,L|312:182,2,70,0|0|2,0:0|0:0|0:0,0:0:0:0:
408,56,29899,5,0,0:0:0:0:
264,56,30512,1,2,0:0:0:0:
145,139,31124,2,0,P|196:186|264:200,1,140,0|2,0:0|0:0,0:0:0:0:
144,272,32348,2,0,P|76:285|25:332,2,140,0|2|0,0:0|0:0|0:0,0:0:0:0:
272,328,34185,6,0,L|352:328,1,70,2|0,0:0|0:0,0:0:0:0:
409,287,34797,2,0,P|426:219|409:152,1,140,0|2,0:0|0:0,0:0:0:0:
314,48,36022,2,0,P|246:31|179:47,1,140,0|2,0:0|0:0,0:0:0:0:
96,160,37246,2,0,L|96:248,2,70,0|0|2,0:0|0:0|0:0,0:0:0:0:
174,197,38165,2,0,B|174:277|174:277|184:328|216:356|288:372,1,210,0|4,0:0|0:1,0:0:0:0:
311,234,39695,6,0,L|471:234,1,140,0|2,0:0|0:0,0:0:0:0:
412,96,40920,2,0,L|252:96,1,140,0|2,0:0|0:0,0:0:0:0:
140,40,42144,2,0,P|108:96|148:160,2,140,0|2|0,0:0|0:0|0:0,0:0:0:0:
12,96,43981,1,2,0:0:0:0:
12,96,44593,6,0,L|12:248,1,140,0|2,0:0|0:0,0:0:0:0:
124,320,45818,2,0,L|204:320,1,70
273,320,46430,1,2,0:0:0:0:
234,187,47042,1,0,0:0:0:0:
378,187,47654,2,0,L|474:187,2,70,2|0|0,0:0|0:0|0:0,0:0:0:0:
304,68,48879,1,2,0:0:0:0:
159,86,49491,6,0,P|79:102|31:150,1,140,0|2,0:0|0:0,0:0:0:0:
16,284,50716,2,0,P|96:268|144:220,1,140,0|2,0:0|0:0,0:0:0:0:
272,176,51940,2,0,L|272:256,1,70
352,216,52552,2,0,L|496:216,1,140,2|0,0:0|0:0,0:0:0:0:
424,88,53777,6,0,B|352:88|352:88|287:66,1,140,2|0,0:0|0:0,0:0:0:0:
146,66,55001,1,2,0:0:0:0:
40,160,55614,1,0,0:0:0:0:
144,256,56226,1,2,0:0:0:0:
144,256,56838,2,0,B|210:238|210:238|304:264,1,140,0|2,0:0|0:0,0:0:0:0:
304,112,58063,6,0,L|456:152,1,140,0|2,0:0|0:0,0:0:0:0:
448,296,59287,2,0,L|368:276,1,70,4|0,0:1|0:0,0:0:0:0:
296,280,59899,2,0,L|228:296,1,70,10|0,0:0|0:0,0:0:0:0:
144,312,60512,2,0,P|116:250|145:188,1,140,0|10,0:0|0:0,0:0:0:0:
264,64,61736,2,0,P|291:125|262:187,2,140,0|10|2,0:0|0:0|0:0,0:0:0:0:
344,32,63267,2,0,L|432:32,1,70,0|10,0:0|0:0,0:0:0:0:
472,192,64185,6,0,L|392:192,1,70,2|0,0:0|0:0,0:0:0:0:
323,160,64797,2,0,P|315:192|328:233,1,70,10|0,0:0|0:0,0:0:0:0:
348,308,65409,2,0,P|278:317|209:307,1,140,2|10,0:0|0:0,0:0:0:0:
64,224,66634,2,0,P|55:154|64:85,2,140,2|10|2,0:0|0:0|0:0,0:0:0:0:
224,160,68471,6,0,L|320:160,2,70,10|0|2,0:0|0:0|0:0,0:0:0:0:
392,160,69695,2,0,L|462:160,2,70,10|0|2,0:0|0:0|0:0,0:0:0:0:
344,324,70920,1,10,0:0:0:0:
344,324,71226,1,0,0:0:0:0:
344,324,71532,2,0,L|344:240,1,70,2|0,0:0|0:0,0:0:0:0:
344,168,72144,2,0,B|272:168|272:168|208:200,1,140,10|2,0:0|0:0,0:0:0:0:
46,240,73369,6,0,L|46:160,1,70,10|0,0:0|0:0,0:0:0:0:
48,80,73981,2,0,B|88:80|88:80|114:109,1,70,2|0,0:0|0:0,0:0:0:0:
192,104,74593,2,0,B|212:81|212:81|252:81,1,70,10|0,0:0|0:0,0:0:0:0:
337,82,75205,2,0,B|408:72|408:72|477:84,2,140,2|10|2,0:0|0:0|0:0,0:0:0:0:
295,156,76736,2,0,L|295:228,1,70,2|10,0:0|0:0,0:0:0:0:
294,312,77348,1,2,0:0:0:0:
215,273,77654,6,0,P|149:292|82:273,1,140,2|10,0:0|0:0,0:0:0:0:
148,116,78879,2,0,P|140:76|148:44,1,70,4|0,0:1|0:0,0:0:0:0:
225,82,79491,2,0,L|305:82,1,70,10|0,0:0|0:0,0:0:0:0:
374,50,80103,2,0,P|380:84|372:117,2,70,2|0|10,0:0|0:0|0:0,0:0:0:0:
301,205,81328,2,0,P|285:277|309:349,2,140,2|10|2,0:0|0:0|0:0,0:0:0:0:
227,163,82858,2,0,P|192:156|155:163,1,70,0|10,0:0|0:0,0:0:0:0:
46,292,83777,6,0,P|86:300|128:284,1,70,2|0,0:0|0:0,0:0:0:0:
82,213,84389,1,10,0:0:0:0:
82,213,84695,1,0,0:0:0:0:
82,213,85001,2,0,L|83:128,1,70,2|0,0:0|0:0,0:0:0:0:
83,56,85614,1,10,0:0:0:0:
249,99,86226,6,0,B|321:83|321:115|387:100,2,140,2|10|2,0:0|0:0|0:0,0:0:0:0:
292,266,88063,2,0,L|292:338,2,70,10|0|2,0:0|0:0|0:0,0:0:0:0:
436,172,89287,2,0,L|436:244,2,70,10|0|2,0:0|0:0|0:0,0:0:0:0:
283,99,90512,2,0,P|219:76|155:100,1,140,10|2,0:0|0:0,0:0:0:0:
84,252,91736,2,0,P|148:276|220:244,1,140,10|2,0:0|0:0,0:0:0:0:
372,188,92960,6,0,L|284:188,1,70,10|0,0:0|0:0,0:0:0:0:
332,108,93573,2,0,B|292:76|292:76|260:100,1,70,2|0,0:0|0:0,0:0:0:0:
188,88,94185,2,0,B|172:76|172:76|132:108,1,70,10|0,0:0|0:0,0:0:0:0:
72,172,94797,2,0,P|51:252|91:308,2,140,2|10|2,0:0|0:0|0:0,0:0:0:0:
256,192,96787,12,4,98471,0:1:0:0:
256,59,99083,5,8,0:0:0:0:
112,147,99695,2,0,P|95:176|100:210,2,70,0|2|10,0:0|0:0|0:0,0:0:0:0:
256,239,100920,5,0,0:0:0:0:
256,239,101532,1,8,0:0:0:0:
400,151,102144,2,0,P|416:121|411:87,2,70,0|2|10,0:0|0:0|0:0,0:0:0:0:
256,239,103369,6,0,P|224:323|248:383,1,140,0|8,0:0|0:0,0:0:0:0:
400,323,104593,2,0,P|431:261|418:194,1,140,0|8,0:0|0:0,0:0:0:0:
274,110,105818,2,0,P|242:171|255:238,3,140,0|8|0|8,0:0|0:0|0:0|0:0,0:0:0:0:
88,219,108267,6,0,L|-4:207,1,70,0|2,0:0|0:0,0:0:0:0:
48,131,108879,2,0,L|117:140,1,70,8|2,0:0|0:0,0:0:0:0:
172,204,109491,2,0,B|184:251|140:291|140:291|156:319|184:339,1,140,0|8,0:0|0:0,0:0:0:0:
336,323,110716,6,0,L|326:253,1,70,0|2,0:0|0:0,0:0:0:0:
414,293,111328,2,0,L|404:223,1,70,8|2,0:0|0:0,0:0:0:0:
422,140,111940,2,0,B|375:128|335:172|335:172|307:156|287:128,1,140,0|8,0:0|0:0,0:0:0:0:
168,43,113165,5,0,0:0:0:0:
168,43,113777,1,8,0:0:0:0:
32,147,114389,2,0,B|60:199|128:215|128:215|164:187,1,140,0|8,0:0|0:0,0:0:0:0:
312,180,115614,2,0,B|326:168|326:168|394:184|422:236,1,140,0|8,0:0|0:0,0:0:0:0:
281,333,116838,1,4,0:1:0:0:
192,84,118063,6,0,B|128:64|76:96|76:96|48:136,1,140,4|2,0:1|0:0,0:0:0:0:
108,276,119287,2,0,B|172:296|224:264|224:264|252:224,2,140,0|2|0,0:0|0:0|0:0,0:0:0:0:
236,164,121124,1,2,0:0:0:0:
236,164,121736,2,0,B|247:148|247:148|299:116|363:136,1,140,0|2,0:0|0:0,0:0:0:0:
404,300,122960,5,0,0:0:0:0:
404,300,123573,1,2,0:0:0:0:
236,292,124185,1,0,0:0:0:0:
236,292,124797,1,2,0:0:0:0:
92,204,125409,6,0,L|96:128,1,70
176,104,126022,2,0,L|180:180,1,70,2|0,0:0|0:0,0:0:0:0:
260,144,126634,2,0,P|324:128|408:128,1,140,0|2,0:0|0:0,0:0:0:0:
424,296,127858,6,0,P|360:312|276:312,1,140,0|2,0:0|0:0,0:0:0:0:
128,248,129083,2,0,P|192:232|276:232,2,140,0|2|0,0:0|0:0|0:0,0:0:0:0:
20,116,130920,1,2,0:0:0:0:
172,40,131532,2,0,P|184:80|176:188,1,140,0|2,0:0|0:0,0:0:0:0:
348,148,132756,6,0,P|412:136|448:144,2,70,0|0|2,0:0|0:0|0:0,0:0:0:0:
292,308,133981,2,0,P|228:320|192:312,2,70,0|0|2,0:0|0:0|0:0,0:0:0:0:
160,200,135205,1,4,0:1:0:0:
256,192,135818,12,0,137042,0:0:0:0:
