osu file format v12

[General]
AudioFilename: Zhi Shang Li He - Mian Hua Tang.mp3
AudioLeadIn: 0
PreviewTime: 57772
Countdown: 0
SampleSet: Soft
StackLeniency: 0.7
Mode: 0
LetterboxInBreaks: 1
WidescreenStoryboard: 1

[Editor]
DistanceSpacing: 1.4
BeatDivisor: 4
GridSize: 4

[Metadata]
Title:Mian Hua Tang
TitleUnicode:棉花糖
Artist:Top Combine
ArtistUnicode:至上励合
Creator:CET 6
Version:Hard
Source:
Tags:marshmallow cotton candy zhi shang li he
BeatmapID:301964
BeatmapSetID:117143

[Difficulty]
HPDrainRate:6
CircleSize:4
OverallDifficulty:6
ApproachRate:7
SliderMultiplier:1.6
SliderTickRate:1

[Events]
//Background and Video events
0,0,"BG.jpg",0,0
//Break Periods
//Storyboard Layer 0 (Background)
//Storyboard Layer 1 (Fail)
//Storyboard Layer 2 (Pass)
//Storyboard Layer 3 (Foreground)
//Storyboard Sound Samples
//Background Colour Transformations
3,100,163,162,255

[TimingPoints]
512,612.244897959184,4,2,2,70,1,0
512,-100,4,2,2,40,0,0
1124,-100,4,2,2,60,0,0
17654,-100,4,2,2,40,0,0
18267,-100,4,2,2,70,0,0
20103,-90.9090909090909,4,2,2,60,0,0
39083,-90.9090909090909,4,2,2,40,0,0
39389,-90.9090909090909,4,2,2,60,0,0
57144,-90.9090909090909,4,2,2,50,0,0
57756,-100,4,2,2,60,0,0
59287,-80,4,2,1,50,0,0
59593,-80,4,2,1,70,0,0
62960,-100,4,2,1,70,0,0
63879,-80,4,2,1,70,0,0
78879,-80,4,2,1,50,0,1
79185,-80,4,2,1,70,0,1
96787,-80,4,2,1,5,0,1
98471,-100,4,2,1,60,0,0
118063,-100,4,2,2,60,0,0
135205,-100,4,2,2,40,0,0
135818,-100,4,2,2,5,0,0

[Colours]
Combo1 : 255,255,128
Combo2 : 128,255,128
Combo3 : 157,201,255
Combo4 : 245,65,92

[HitObjects]
256,80,512,2,0,P|184:56|96:88,1,160,4|2,0:1|0:0,0:0:0:0:
256,304,1736,2,0,P|328:328|416:296,2,160,0|2|0,0:0|0:0|0:0,0:0:0:0:
330,83,3573,1,2,0:0:0:0:
256,170,3879,1,0,0:0:0:0:
404,170,4185,2,0,L|492:170,2,80,0|0|2,0:0|0:0|0:0,0:0:0:0:
330,257,5103,1,0,0:0:0:0:
256,344,5409,6,0,L|160:344,1,80
102,257,6022,1,2,0:0:0:0:
102,257,6634,2,0,P|48:210|44:186,1,80
148,148,7246,2,0,P|202:195|206:219,1,80,2|0,0:0|0:0,0:0:0:0:
208,316,7858,5,0,0:0:0:0:
208,316,8165,1,0,0:0:0:0:
325,293,8471,1,2,0:0:0:0:
325,293,8777,1,0,0:0:0:0:
400,200,9083,2,0,L|400:120,2,80,0|0|2,0:0|0:0|0:0,0:0:0:0:
508,160,10001,1,0,0:0:0:0:
400,120,10307,6,0,B|320:100|320:100|276:112|260:156,1,160,0|2,0:0|0:0,0:0:0:0:
68,292,11532,2,0,B|148:312|148:312|192:300|204:263,2,160,0|2|0,0:0|0:0|0:0,0:0:0:0:
80,176,13063,1,0,0:0:0:0:
80,176,13216,1,0,0:0:0:0:
80,176,13369,2,0,P|116:140|164:128,1,80,2|0,0:0|0:0,0:0:0:0:
212,36,13981,6,0,P|252:80|260:116,1,80
348,172,14593,2,0,L|427:168,1,80,2|0,0:0|0:0,0:0:0:0:
328,272,15205,2,0,L|240:276,2,80,0|0|2,0:0|0:0|0:0,0:0:0:0:
444,60,16430,1,0,0:0:0:0:
472,172,16736,1,0,0:0:0:0:
472,172,16889,1,0,0:0:0:0:
472,172,17042,2,0,B|492:244|440:276|440:276|408:260|384:276,1,160,2|4,0:0|0:1,0:0:0:0:
172,244,18267,6,0,L|140:336,1,80,2|0,0:0|0:0,0:0:0:0:
56,248,18879,1,0,0:0:0:0:
56,248,19491,1,2,0:0:0:0:
203,43,20103,5,0,0:0:0:0:
203,43,20409,2,0,L|172:125,1,88.000002685547,0|2,0:0|0:0,0:0:0:0:
124,244,21022,1,0,0:0:0:0:
124,244,21328,2,0,P|209:264|296:244,1,176.000005371094,0|2,0:0|0:0,0:0:0:0:
249,126,22246,1,0,0:0:0:0:
374,151,22552,2,0,L|420:232,1,88.000002685547,0|0,0:0|0:0,0:0:0:0:
502,132,23165,5,2,0:0:0:0:
443,20,23471,1,0,0:0:0:0:
336,88,23777,2,2,P|295:103|251:106,1,88.000002685547,0|10,0:0|0:0,0:0:0:0:
72,140,24389,2,2,P|120:144|160:161,1,88.000002685547,2|10,0:0|0:0,0:0:0:0:
88,264,25001,5,0,0:0:0:0:
88,264,25307,2,0,P|76:305|89:346,1,88.000002685547,0|2,0:0|0:0,0:0:0:0:
216,348,25920,1,0,0:0:0:0:
216,348,26226,2,0,P|228:307|214:264,1,88.000002685547,0|0,0:0|0:0,0:0:0:0:
337,304,26838,1,2,0:0:0:0:
416,204,27144,1,0,0:0:0:0:
294,161,27450,6,0,P|279:202|295:243,1,88.000002685547
416,204,28063,1,2,0:0:0:0:
236,120,28369,2,2,P|207:202|236:284,1,176.000005371094,0|10,0:0|0:0,0:0:0:0:
416,204,29287,2,2,L|324:204,1,88.000002685547,2|10,0:0|0:0,0:0:0:0:
236,120,29899,5,0,0:0:0:0:
236,120,30205,2,0,L|132:120,1,88.000002685547,0|2,0:0|0:0,0:0:0:0:
36,56,30818,1,0,0:0:0:0:
36,184,31124,2,0,L|36:304,1,88.000002685547
145,337,31736,2,0,P|186:324|210:288,1,88.000002685547,2|0,0:0|0:0,0:0:0:0:
211,161,32348,6,0,P|186:125|145:111,2,88.000002685547,0|0|2,0:0|0:0|0:0,0:0:0:0:
321,226,33267,1,0,0:0:0:0:
321,226,33573,2,2,L|321:322,1,88.000002685547,0|10,0:0|0:0,0:0:0:0:
440,272,34185,2,2,L|440:184,1,88.000002685547,0|10,0:0|0:0,0:0:0:0:
344,100,34797,6,0,B|304:105|256:89|256:89|216:101|204:153,1,176.000005371094,0|2,0:0|0:0,0:0:0:0:
168,276,35716,2,0,B|156:328|116:340|116:340|68:324|28:329,1,176.000005371094,0|0,0:0|0:0,0:0:0:0:
28,200,36634,1,2,0:0:0:0:
28,200,36940,2,0,L|72:200,1,44.0000013427735
108,200,37246,2,0,P|124:160|180:132,1,88.000002685547
277,187,37858,1,2,0:0:0:0:
202,290,38165,2,2,P|150:223|159:137,1,176.000005371094,0|10,0:0|0:0,0:0:0:0:
236,34,39083,2,2,P|268:68|288:128,1,88.000002685547,4|10,1:0|0:0,0:0:0:0:
260,230,39695,5,0,0:0:0:0:
374,285,40001,1,0,0:0:0:0:
374,285,40307,2,0,L|426:193,1,88.000002685547,2|0,0:0|0:0,0:0:0:0:
422,81,40920,1,0,0:0:0:0:
422,81,41226,1,0,0:0:0:0:
306,133,41532,2,0,L|254:225,1,88.000002685547,2|0,0:0|0:0,0:0:0:0:
134,209,42144,6,0,L|177:132,1,88.000002685547
50,113,42756,1,2,0:0:0:0:
50,113,43063,2,2,B|6:190|6:190|-2:241|38:285,1,176.000005371094,2|10,0:0|0:0,0:0:0:0:
151,293,43981,2,2,P|151:249|130:205,1,88.000002685547,2|10,0:0|0:0,0:0:0:0:
262,225,44593,5,0,0:0:0:0:
373,293,44899,1,0,0:0:0:0:
373,293,45205,2,0,P|373:249|394:205,1,88.000002685547,2|0,0:0|0:0,0:0:0:0:
493,133,45818,2,0,P|494:176|476:216,1,88.000002685547,0|0,0:0|0:0,0:0:0:0:
373,293,46430,1,2,0:0:0:0:
270,217,46736,2,0,B|294:185|290:133|290:133|264:84|288:32,1,176.000005371094
404,80,47654,5,2,0:0:0:0:
281,48,47960,1,10,0:0:0:0:
157,80,48267,2,2,P|113:71|70:79,1,88.000002685547,0|10,0:0|0:0,0:0:0:0:
28,200,48879,2,2,P|71:207|114:199,1,88.000002685547,2|10,0:0|0:0,0:0:0:0:
157,320,49491,5,0,0:0:0:0:
157,320,49797,2,0,P|200:313|243:320,1,88.000002685547,0|2,0:0|0:0,0:0:0:0:
295,205,50409,1,0,0:0:0:0:
347,321,50716,2,0,P|390:328|433:320,1,88.000002685547,0|0,0:0|0:0,0:0:0:0:
475,201,51328,2,0,P|431:192|388:200,1,88.000002685547,2|0,0:0|0:0,0:0:0:0:
347,81,51940,5,0,0:0:0:0:
231,25,52246,1,0,0:0:0:0:
231,153,52552,2,2,L|231:281,1,88.000002685547,2|10,0:0|0:0,0:0:0:0:
347,297,53165,2,2,L|347:209,1,88.000002685547,0|10,0:0|0:0,0:0:0:0:
231,265,53777,6,0,P|195:325|159:333,1,88.000002685547,2|0,0:0|0:0,0:0:0:0:
95,237,54389,2,0,P|71:204|68:156,1,88.000002685547,0|0,0:0|0:0,0:0:0:0:
80,120,54848,1,0,0:0:0:0:
112,96,55001,2,0,L|216:68,2,88.000002685547,2|0|0,0:0|0:0|0:0,0:0:0:0:
232,140,55920,2,0,L|336:168,1,88.000002685547,0|2,0:0|0:0,0:0:0:0:
432,220,56532,1,2,0:0:0:0:
322,286,56838,5,8,0:0:0:0:
290,295,56991,1,0,0:0:0:0:
258,290,57144,1,8,1:2:0:0:
226,286,57297,1,0,0:0:0:0:
194,290,57450,1,10,1:2:0:0:
88,232,57756,5,0,0:0:0:0:
88,232,58063,2,0,L|136:56,1,160,0|2,0:0|0:0,0:0:0:0:
407,194,59287,6,2,P|417:243|402:290,1,100,4|0,0:1|0:0,0:0:0:0:
262,290,59899,2,2,P|246:242|262:186,1,100,10|0,0:0|0:0,0:0:0:0:
334,46,60512,2,0,L|334:146,2,100,0|0|10,0:0|0:0|0:0,0:0:0:0:
334,239,61430,1,0,0:0:0:0:
191,192,61736,6,2,B|155:172|115:176|115:176|83:200,1,100,0|0,0:0|0:0,0:0:0:0:
208,88,62348,2,2,B|244:68|284:72|284:72|316:96,1,100,10|0,0:0|0:0,0:0:0:0:
238,288,62960,2,0,B|184:321|128:281|128:281|96:289|104:337,1,160,2|10,3:2|3:2,0:0:0:0:
237,288,63879,1,0,3:0:0:0:
354,173,64185,6,2,P|378:229|366:289,1,100,2|0,0:0|0:0,0:0:0:0:
273,109,64797,2,2,P|314:81|364:75,1,100,10|0,0:0|0:0,0:0:0:0:
210,189,65409,2,0,P|178:149|174:101,2,100,2|0|10,0:0|0:0|0:0,0:0:0:0:
290,253,66328,1,0,0:0:0:0:
327,89,66634,6,2,P|371:66|420:56,1,100,2|0,0:0|0:0,0:0:0:0:
510,233,67246,2,2,P|466:256|417:266,1,100,10|0,3:2|0:0,0:0:0:0:
326,89,67858,1,2,3:2:0:0:
510,233,68471,6,0,P|466:256|417:266,1,100,10|0,3:2|0:0,0:0:0:0:
214,285,69083,1,2,0:0:0:0:
94,105,69695,6,0,P|170:73|226:73,1,100,10|0,0:0|0:0,0:0:0:0:
385,36,70307,1,2,0:0:0:0:
385,36,70920,6,2,P|399:85|396:134,1,100,10|0,0:0|0:0,0:0:0:0:
263,188,71532,2,2,P|215:173|165:176,1,100,2|0,0:0|0:0,0:0:0:0:
26,141,72144,2,0,P|23:190|37:238,2,100,10|0|2,0:0|0:0|3:2,0:0:0:0:
167,176,73063,1,0,0:0:0:0:
202,317,73369,5,10,3:2:0:0:
167,176,73675,1,0,0:0:0:0:
218,41,73981,2,2,P|261:64|292:103,1,100,2|0,0:0|0:0,0:0:0:0:
414,181,74593,2,2,P|381:219|336:240,1,100,10|0,0:0|0:0,0:0:0:0:
192,260,75205,5,2,0:0:0:0:
240,100,75512,1,2,0:0:0:0:
101,143,75818,2,0,P|53:131|5:144,1,100,10|2,0:0|0:0,0:0:0:0:
240,100,76430,2,0,P|335:77|431:102,1,200,2|10,0:0|0:0,0:0:0:0:
336,216,77348,5,0,0:0:0:0:
336,216,77654,1,2,3:2:0:0:
336,216,77960,2,0,L|336:292,2,50,2|2|10,3:2|0:0|3:2,0:0:0:0:
336,352,78573,1,2,3:2:0:0:
203,285,78879,6,2,B|159:285|127:265|127:265|119:229,1,100,4|0,0:1|0:0,0:0:0:0:
19,137,79491,2,2,B|23:117|23:117|55:97|99:97,1,100,10|0,0:0|0:0,0:0:0:0:
251,89,80103,2,0,B|251:133|231:165|231:165|211:169,1,100,2|0,0:0|0:0,0:0:0:0:
83,249,80716,1,10,0:0:0:0:
83,249,81022,1,0,0:0:0:0:
213,312,81328,6,2,P|285:316|325:288,1,100,2|0,0:0|0:0,0:0:0:0:
457,264,81940,2,2,P|438:217|394:175,1,100,10|0,0:0|0:0,0:0:0:0:
389,32,82552,2,0,P|285:72|257:152,1,200,2|10,3:2|3:2,0:0:0:0:
368,260,83471,1,0,3:0:0:0:
368,260,83777,6,2,P|320:244|264:252,1,100,2|0,0:0|0:0,0:0:0:0:
51,259,84389,2,2,P|99:275|155:267,1,100,10|0,0:0|0:0,0:0:0:0:
189,124,85001,1,2,0:0:0:0:
41,108,85307,1,2,0:0:0:0:
237,100,85614,1,10,0:0:0:0:
385,116,85920,1,2,0:0:0:0:
124,195,86226,6,2,P|153:236|225:232,1,100,2|0,0:0|0:0,0:0:0:0:
312,148,86838,2,0,P|284:108|237:100,2,100,10|2|2,0:0|0:0|3:2,0:0:0:0:
439,113,87756,1,0,0:0:0:0:
425,248,88063,6,0,L|414:348,1,100,10|0,3:2|0:0,0:0:0:0:
277,280,88675,1,2,0:0:0:0:
277,280,89287,6,0,L|266:180,1,100,10|0,0:0|0:0,0:0:0:0:
109,168,89899,1,2,0:0:0:0:
109,168,90512,6,0,L|120:69,1,100,10|0,0:0|0:0,0:0:0:0:
265,136,91124,1,2,0:0:0:0:
265,136,91736,6,0,L|277:235,1,100,10|0,0:0|0:0,0:0:0:0:
433,288,92348,1,2,0:0:0:0:
193,76,92960,6,0,P|137:68|97:120,1,100,10|0,0:0|0:0,0:0:0:0:
141,240,93573,2,0,P|197:248|237:196,1,100,2|0,0:0|0:0,0:0:0:0:
337,120,94185,2,0,L|453:92,1,100,10|0,0:0|0:0,0:0:0:0:
417,244,94797,1,2,0:0:0:0:
417,244,95103,1,0,0:0:0:0:
269,244,95409,2,0,B|221:204|221:204|181:140|213:48,1,200,10|2,0:0|0:0,0:0:0:0:
256,192,96787,12,4,98471,0:1:0:0:
256,72,99083,5,8,0:0:0:0:
180,132,99389,1,0,0:0:0:0:
92,172,99695,2,0,P|32:192|0:192,3,80,0|2|8|2,0:0|0:0|0:0|0:0,0:0:0:0:
80,264,100920,6,0,P|136:320|232:328,1,160,0|8,0:0|0:0,0:0:0:0:
304,304,101838,1,0,0:0:0:0:
304,304,102144,2,0,P|364:284|396:284,3,80,0|2|8|2,0:0|0:0|0:0|0:0,0:0:0:0:
440,208,103369,6,0,P|380:188|348:188,1,80,0|2,0:0|0:0,0:0:0:0:
332,184,103828,2,0,B|328:136|292:108|292:108|224:100,1,120,10|0,0:0|0:0,0:0:0:0:
208,24,104593,2,0,P|176:60|168:104,1,80,0|2,0:0|0:0,0:0:0:0:
160,120,105052,2,0,P|112:148|44:152,1,120,10|0,0:0|0:0,0:0:0:0:
32,248,105818,6,0,P|28:296|28:336,1,80
124,336,106430,2,0,P|127:296|128:256,1,80,8|0,0:0|0:0,0:0:0:0:
220,228,107042,1,0,0:0:0:0:
220,228,107348,2,0,P|216:267|215:307,1,80,0|8,0:0|0:0,0:0:0:0:
306,275,107960,5,0,0:0:0:0:
306,275,108267,2,0,P|345:274|385:270,1,80,0|2,0:0|0:0,0:0:0:0:
426,183,108879,2,0,P|386:183|346:187,1,80,8|2,0:0|0:0,0:0:0:0:
249,195,109491,2,0,P|276:120|352:92,1,160,0|8,0:0|0:0,0:0:0:0:
442,83,110409,1,0,0:0:0:0:
426,183,110716,6,0,P|386:183|346:187,1,80,0|2,0:0|0:0,0:0:0:0:
284,260,111328,2,0,P|244:259|204:255,1,80,8|2,0:0|0:0,0:0:0:0:
151,176,111940,2,0,B|111:172|67:180|67:180|35:156|15:108,1,160,0|8,0:0|0:0,0:0:0:0:
40,28,112858,1,0,0:0:0:0:
117,86,113165,6,0,P|164:84|220:104,1,80,0|2,0:0|0:0,0:0:0:0:
348,112,113777,2,0,P|309:120|269:117,1,80,8|2,0:0|0:0,0:0:0:0:
199,184,114389,2,0,P|163:252|200:328,1,160,0|8,0:0|0:0,0:0:0:0:
288,296,115307,5,0,0:0:0:0:
288,296,115614,2,0,P|296:257|288:218,1,80,0|2,0:0|0:0,0:0:0:0:
324,128,116226,1,8,0:0:0:0:
324,128,116532,2,0,P|362:120|401:128,2,80,2|0|0,0:0|0:0|0:0,0:0:0:0:
150,80,118063,6,0,P|111:72|73:80,2,80,4|0|2,0:1|0:0|0:0,0:0:0:0:
112,168,118981,1,0,0:0:0:0:
112,168,119287,2,0,B|104:248|120:248|108:328,2,160,0|2|0,0:0|0:0|0:0,0:0:0:0:
112,72,120818,1,0,0:0:0:0:
196,120,121124,22,0,P|234:111|273:120,1,80,2|0,0:0|0:0,0:0:0:0:
358,168,121736,1,0,0:0:0:0:
358,168,122042,1,0,0:0:0:0:
274,216,122348,2,0,P|235:224|196:216,1,80,2|0,0:0|0:0,0:0:0:0:
112,168,122960,22,0,L|104:260,2,80,0|0|2,0:0|0:0|0:0,0:0:0:0:
120,72,123879,1,0,0:0:0:0:
216,60,124185,2,0,B|296:68|296:68|336:64|376:72,1,160,0|2,0:0|0:0,0:0:0:0:
456,124,125103,1,0,0:0:0:0:
368,164,125409,22,0,P|364:220|356:252,1,80
264,224,126022,2,0,P|256:263|254:303,1,80,2|0,0:0|0:0,0:0:0:0:
344,336,126634,2,0,P|416:320|444:224,1,160,0|2,0:0|0:0,0:0:0:0:
458,151,127552,1,0,0:0:0:0:
448,246,127858,38,0,P|418:317|344:336,1,160,0|2,0:0|0:0,0:0:0:0:
216,192,129083,2,0,P|245:120|320:102,2,160,0|2|0,0:0|0:0|0:0,0:0:0:0:
197,286,130614,1,0,0:0:0:0:
197,286,130920,2,0,P|177:326|113:338,1,80,2|0,0:0|0:0,0:0:0:0:
73,278,131532,2,0,P|93:238|157:226,1,80,0|0,0:0|0:0,0:0:0:0:
215,191,132144,1,2,0:0:0:0:
215,191,132450,1,0,0:0:0:0:
172,104,132756,6,0,P|133:95|94:103,2,80,0|0|2,0:0|0:0|0:0,0:0:0:0:
340,280,133981,2,0,P|378:288|417:280,2,80,0|0|2,0:0|0:0|0:0,0:0:0:0:
256,188,135205,5,4,0:1:0:0:
256,192,135818,12,0,137042,0:0:0:0:
