osu file format v14

[General]
AudioFilename: Toni Ten - Tu ets el meu cor encantat.mp3
AudioLeadIn: 0
PreviewTime: 68416
Countdown: 0
SampleSet: Soft
StackLeniency: 0.3
Mode: 2
LetterboxInBreaks: 0
WidescreenStoryboard: 0

[Editor]
DistanceSpacing: 2
BeatDivisor: 4
GridSize: 4
TimelineZoom: 1.7

[Metadata]
Title:Tu ets el meu cor encantat
TitleUnicode:Tu ets el meu cor encantat
Artist:Toni Ten
ArtistUnicode:Toni Ten
Creator:Hanjamon
Version:Manuxz's Platter
Source:Dragon Ball GT
Tags:Catalán Català Gero Manuxz Opening 1 TV Size
BeatmapID:554120
BeatmapSetID:231024

[Difficulty]
HPDrainRate:6
CircleSize:3.5
OverallDifficulty:8
ApproachRate:8
SliderMultiplier:1.6
SliderTickRate:1

[Events]
//Background and Video events
0,0,"BG.jpg",0,0
Video,-960,"Video.avi"
//Break Periods
//Storyboard Layer 0 (Background)
//Storyboard Layer 1 (Fail)
//Storyboard Layer 2 (Pass)
//Storyboard Layer 3 (Foreground)
//Storyboard Sound Samples

[TimingPoints]
-1300,448.698773556686,4,2,0,50,1,0
3074,-100,4,3,0,30,0,0
4084,-100,4,2,0,50,0,0
25623,448.095593726662,4,2,0,50,1,0
68632,448.698773556686,4,2,0,50,1,0
68632,-83.3333333333333,4,2,0,50,0,1
82878,-83.3333333333333,4,2,0,50,0,0
82990,-83.3333333333333,4,2,0,50,0,1
97348,-100,4,2,0,50,0,0
102733,-100,4,2,0,40,0,0
103630,-100,4,2,0,30,0,0
104527,-100,4,2,0,20,0,0
105425,-100,4,2,0,10,0,0
106322,-100,4,2,0,5,0,0

[Colours]
Combo1 : 214,80,65
Combo2 : 45,175,225
Combo3 : 202,173,119

[HitObjects]
256,352,270,5,0,0:0:0:0:
360,288,494,2,0,B|294:142,1,160,4|0,1:0|1:0,0:0:0:0:
152,288,1392,2,0,B|217:142,1,160,0|0,1:0|1:0,0:0:0:0:
480,32,2289,5,0,1:0:0:0:
288,32,2513,2,0,B|192:32,1,80,0|0,0:0|1:0,0:0:0:0:
32,96,2962,2,0,B|81:158,1,80,0|0,0:0|1:0,0:0:0:0:
189,353,3299,5,0,1:0:0:0:
248,328,3411,1,0,1:0:0:0:
288,280,3523,1,0,1:0:0:0:
320,224,3635,1,0,1:0:0:0:
336,160,3748,1,0,1:0:0:0:
348,96,3860,1,0,1:0:0:0:
344,32,3972,1,0,1:0:0:0:
200,32,4084,6,0,B|115:72,1,80,4|0,1:0|0:0,0:0:0:0:
348,96,4533,1,0,1:0:0:0:
172,352,4981,2,0,B|116:295,1,80,0|0,1:0|0:0,0:0:0:0:
270,295,5430,2,0,B|288:208,1,80,0|0,1:0|0:0,0:0:0:0:
36,286,5879,6,0,B|133:261|118:169,1,160,0|0,1:0|1:0,0:0:0:0:
326,169,6776,2,0,B|344:72|247:52,1,160,0|0,1:0|1:0,0:0:0:0:
139,53,7449,1,0,0:0:0:0:
480,192,7673,6,0,B|320:176,1,160,4|0,1:0|1:0,0:0:0:0:
90,176,8571,2,0,B|43:241,1,80,0|0,1:0|0:0,0:0:0:0:
172,241,9020,2,0,B|193:318,1,80,0|0,1:0|0:0,0:0:0:0:
321,318,9468,6,0,B|350:236,1,80,0|0,1:0|0:0,0:0:0:0:
471,241,9917,2,0,B|424:176,1,80,0|0,1:0|0:0,0:0:0:0:
256,176,10366,1,0,1:0:0:0:
128,176,10590,1,0,0:0:0:0:
255,176,10814,1,0,1:0:0:0:
458,127,11263,6,0,B|406:72|372:60|372:60|322:68,1,160,4|0,1:0|1:0,0:0:0:0:
440,308,11936,1,0,0:0:0:0:
312,308,12160,2,0,B|336:232|336:232|407:196,1,160,0|0,1:0|1:0,0:0:0:0:
102,138,13058,2,0,B|256:96,2,160,4|0|0,1:0|1:0|1:0,0:0:0:0:
256,352,14404,5,0,1:0:0:0:
128,288,14629,1,0,0:0:0:0:
364,301,14853,2,0,B|337:217|256:192,2,160,0|0|0,1:0|1:0|1:0,0:0:0:0:
136,124,16199,1,0,1:0:0:0:
480,224,16647,6,0,B|368:224|368:224|384:320|384:320|256:320,1,320,4|0,1:0|1:0,0:0:0:0:
367,64,17769,1,0,1:0:0:0:
208,64,17994,1,0,1:0:0:0:
400,64,18218,1,0,1:0:0:0:
80,192,18442,6,0,B|0:192,2,80,4|0|0,1:0|0:0|1:0,0:0:0:0:
321,192,19115,2,0,B|328:268|328:268|280:336,1,160,0|0,0:0|0:0,0:0:0:0:
150,325,19788,1,0,1:0:0:0:
22,325,20013,1,0,0:0:0:0:
368,192,20237,6,0,B|448:192,2,80,4|0|0,1:0|0:0|1:0,0:0:0:0:
144,192,20910,2,0,B|64:192|64:192|144:192,1,160,0|0,0:0|0:0,0:0:0:0:
272,192,21583,1,0,1:0:0:0:
400,192,21808,1,0,0:0:0:0:
108,192,22032,6,0,B|157:118,1,80,4|2,1:0|0:0,0:0:0:0:
280,125,22481,2,0,B|236:58,1,80,0|2,0:0|0:0,0:0:0:0:
363,58,22929,2,0,B|319:125,1,80,0|2,0:0|0:0,0:0:0:0:
447,124,23378,2,0,B|376:176,1,80,0|2,0:0|0:0,0:0:0:0:
88,180,23827,6,0,B|8:180,1,80,0|2,0:0|0:0,0:0:0:0:
152,240,24276,2,0,B|108:307,1,80,0|2,0:0|0:0,0:0:0:0:
224,224,24724,1,0,1:0:0:0:
351,224,24948,5,2,0:0:0:0:
388,186,25061,1,0,1:0:0:0:
351,149,25173,1,0,1:0:0:0:
192,152,25397,1,0,1:0:0:0:
495,99,25623,6,0,B|392:64|392:64|416:12,2,160,4|0|4,1:2|1:0|0:3,0:0:0:0:
367,99,26743,1,0,0:0:0:0:
239,99,26967,1,0,1:0:0:0:
111,99,27191,1,0,0:0:0:0:
448,232,27415,6,0,B|280:216,1,160,4|0,0:3|1:0,0:0:0:0:
160,216,28087,2,0,B|80:213,2,80,0|4|0,0:0|0:3|0:0,0:0:0:0:
347,190,28759,2,0,B|328:108,1,80,0|0,1:0|0:0,0:0:0:0:
44,108,29207,1,4,1:0:0:0:
235,108,29655,6,0,L|264:33,1,80,0|0,1:0|0:0,0:0:0:0:
72,32,30103,2,0,L|40:120,1,80,4|0,0:3|0:0,0:0:0:0:
231,154,30552,2,0,L|193:224,1,80,0|0,1:0|0:0,0:0:0:0:
388,224,31000,6,0,B|325:174,2,80,4|0|0,0:3|0:0|1:0,0:0:0:0:
256,352,31672,2,0,B|288:272|288:272|358:248,1,160,0|0,0:0|0:0,0:0:0:0:
229,248,32344,2,0,B|165:176,1,80,0|0,1:0|0:0,0:0:0:0:
476,176,32792,1,4,1:0:0:0:
136,192,33240,5,0,1:0:0:0:
68,124,33464,1,0,0:0:0:0:
0,56,33688,1,4,0:3:0:0:
136,252,33912,2,0,B|75:192,1,80,0|0,0:0|1:0,0:0:0:0:
220,192,34361,1,0,0:0:0:0:
439,55,34584,6,0,B|467:129,1,80,4|0,0:3|0:0,0:0:0:0:
331,129,35033,2,0,L|251:137,1,80,0|0,1:0|0:0,0:0:0:0:
116,137,35481,1,4,0:3:0:0:
440,179,35704,2,0,B|364:320,1,160,0|0,0:0|0:0,0:0:0:0:
147,334,36377,6,0,B|24:228,1,160,4|0,1:0|1:0,0:0:0:0:
196,196,37049,1,0,0:0:0:0:
364,152,37273,2,0,B|268:152,1,80,4|0,0:3|0:0,0:0:0:0:
444,120,37721,1,0,1:0:0:0:
316,148,37945,1,0,0:0:0:0:
9,200,38169,6,0,B|95:333,1,160,4|0,1:0|1:0,0:0:0:0:
256,276,38841,2,0,L|199:219,1,80,0|4,0:0|0:3,0:0:0:0:
359,219,39289,1,0,0:0:0:0:
199,219,39513,1,0,1:0:0:0:
359,219,39738,1,0,0:0:0:0:
32,80,39962,1,4,1:0:0:0:
320,352,40410,5,0,1:0:0:0:
183,352,40634,1,0,0:0:0:0:
8,192,40858,2,0,L|176:212,1,160,4|0,0:3|1:0,0:0:0:0:
352,352,41530,1,0,0:0:0:0:
32,32,41754,6,0,B|190:54,1,160,4|0,1:0|1:0,0:0:0:0:
401,176,42426,2,0,B|496:176,2,80,0|4|0,0:0|0:3|0:0,0:0:0:0:
216,216,43098,2,0,B|160:160,1,80,0|0,1:0|0:0,0:0:0:0:
512,224,43546,1,4,1:0:0:0:
320,224,43994,5,0,1:0:0:0:
208,224,44218,1,0,0:0:0:0:
96,224,44443,2,0,B|256:224,1,160,4|0,0:3|1:0,0:0:0:0:
96,224,45115,1,0,0:0:0:0:
416,160,45339,2,0,B|392:248|392:248|354:305,1,160,4|0,1:0|1:0,0:0:0:0:
128,256,46235,6,0,B|64:284|64:284|106:362,2,120,4|0|0,0:3|0:0|0:0,0:0:0:0:
428,256,47131,1,4,1:0:0:0:
128,256,47579,1,0,1:0:0:0:
320,160,48027,5,4,0:3:0:0:
384,160,48251,1,0,0:0:0:0:
192,160,48475,1,0,1:0:0:0:
128,160,48699,1,0,0:0:0:0:
480,96,48923,6,0,B|320:96,1,160,4|0,1:0|1:0,0:0:0:0:
191,96,49596,2,0,B|287:96,1,80,0|4,0:0|0:3,0:0:0:0:
143,96,50044,2,0,B|63:96,2,80,0|0|0,0:0|1:0|0:0,0:0:0:0:
480,96,50716,6,0,B|320:96,2,160,4|0|4,1:0|1:0|0:3,0:0:0:0:
328,52,51836,1,0,0:0:0:0:
328,116,52060,1,0,1:0:0:0:
174,77,52284,1,0,0:0:0:0:
473,77,52508,5,4,1:0:0:0:
256,307,52956,1,0,1:0:0:0:
39,307,53404,2,0,B|128:352,1,80,4|0,0:3|1:0,0:0:0:0:
238,344,53853,2,0,B|158:344,1,80,0|0,1:0|1:0,0:0:0:0:
453,51,54301,5,4,1:0:0:0:
309,51,54525,2,0,B|229:51,2,80,0|0|0,0:0|1:0|0:0,0:0:0:0:
86,51,55197,1,4,0:3:0:0:
230,51,55421,2,0,B|150:51,2,80,0|0|0,0:0|1:0|0:0,0:0:0:0:
446,116,56093,6,0,B|517:155|517:155|447:194,1,160,4|0,0:0|1:0,0:0:0:0:
208,193,56765,1,0,0:0:0:0:
367,193,56989,2,0,L|287:192,1,80,4|0,0:3|0:0,0:0:0:0:
127,192,57437,2,0,L|206:192,1,80,0|0,1:0|0:0,0:0:0:0:
508,192,57885,6,0,B|464:116|464:116|393:102,1,160,4|0,1:0|1:0,0:0:0:0:
232,102,58558,2,0,L|243:22,1,80,0|4,0:0|0:3,0:0:0:0:
390,65,59006,2,0,B|416:110|416:110|320:160,1,160,0|0,0:0|0:0,0:0:0:0:
32,350,59678,6,0,L|152:228,1,160,4|0,1:0|1:0,0:0:0:0:
252,236,60275,2,0,B|144:236,2,106.666666666667,0|4|0,0:3|1:0|0:0,0:0:0:0:
361,236,61022,2,0,L|417:179,1,80,0|0,1:0|0:0,0:0:0:0:
84,96,61470,6,0,B|24:132|0:196|24:264|86:286,1,240,4|0,1:0|0:0,0:0:0:0:
213,285,62366,2,0,B|289:255|289:255|304:178,1,160,0|0,0:0|1:0,0:0:0:0:
143,171,63038,1,0,0:0:0:0:
448,168,63263,6,0,B|512:272,2,120,4|0|0,1:0|0:0|0:0,0:0:0:0:
288,176,64159,2,0,L|256:96,1,80,4|0,0:3|0:0,0:0:0:0:
64,176,64607,2,0,B|112:88,1,80,0|0,1:0|0:0,0:0:0:0:
472,172,65055,1,4,1:0:0:0:
256,300,65503,5,0,1:0:0:0:
144,188,65727,2,0,L|223:189,2,80,0|4|0,0:0|0:3|0:0,0:0:0:0:
368,188,66399,2,0,L|289:189,1,80,0|0,1:0|0:0,0:0:0:0:
256,192,66847,12,0,68192,1:0:0:0:
32,96,68632,6,0,L|108:36,1,95.9999970703126,4|0,1:0|0:0,0:0:0:0:
260,36,69080,2,0,L|164:36,1,95.9999970703126,0|0,1:0|0:0,0:0:0:0:
318,36,69529,1,0,1:0:0:0:
164,36,69753,1,0,0:0:0:0:
272,144,69978,1,0,1:0:0:0:
118,144,70202,1,0,0:0:0:0:
416,224,70426,6,0,B|288:224|288:224|253:285,1,191.999994140625,4|0,1:0|1:0,0:0:0:0:
102,279,71099,1,0,0:0:0:0:
224,160,71324,2,0,L|250:67,1,95.9999970703126,0|0,1:0|0:0,0:0:0:0:
97,67,71772,2,0,L|123:159,1,95.9999970703126,0|0,1:0|0:0,0:0:0:0:
480,64,72221,6,0,L|384:60,1,95.9999970703126,4|0,1:0|0:0,0:0:0:0:
230,60,72670,2,0,L|325:63,1,95.9999970703126,0|0,1:0|0:0,0:0:0:0:
172,63,73118,1,0,1:0:0:0:
288,160,73343,1,0,0:0:0:0:
160,268,73567,1,0,1:0:0:0:
32,376,73792,1,0,0:0:0:0:
477,227,74016,6,0,B|441:316,1,95.9999970703126,0|0,1:0|0:0,0:0:0:0:
287,316,74465,1,0,1:0:0:0:
352,176,74689,1,0,0:0:0:0:
198,176,74913,1,0,1:0:0:0:
280,24,75138,1,0,0:0:0:0:
94,28,75362,2,0,L|49:113,1,95.9999970703126,0|0,1:0|0:0,0:0:0:0:
448,192,75811,6,0,B|478:100,1,95.9999970703126,4|0,1:0|0:0,0:0:0:0:
286,100,76259,2,0,L|195:67,1,95.9999970703126,0|0,1:0|0:0,0:0:0:0:
3,67,76708,1,0,1:0:0:0:
194,67,76932,1,0,0:0:0:0:
386,67,77157,2,0,L|478:41,1,95.9999970703126,0|0,1:0|0:0,0:0:0:0:
31,164,77605,6,0,B|96:240|96:240|32:308,1,191.999994140625,4|0,1:0|1:0,0:0:0:0:
225,160,78279,2,0,B|225:64,1,95.9999970703126,0|0,0:0|1:0,0:0:0:0:
368,72,78727,1,0,0:0:0:0:
512,56,78952,2,0,L|512:160,1,95.9999970703126,0|0,1:0|0:0,0:0:0:0:
32,320,79400,6,0,B|96:288|96:288|128:320|209:319,1,191.999994140625,0|0,1:0|1:0,0:0:0:0:
384,320,80298,2,0,L|416:224,1,95.9999970703126,0|0,1:0|0:0,0:0:0:0:
128,320,80746,2,0,L|96:224,1,95.9999970703126,0|0,1:0|0:0,0:0:0:0:
480,288,81195,6,0,B|288:288,2,191.999994140625,4|0|0,1:0|1:0|1:0,0:0:0:0:
328,288,82317,1,0,1:0:0:0:
172,288,82541,1,0,1:0:0:0:
17,288,82766,1,0,1:0:0:0:
384,256,82990,6,0,B|480:256,1,95.9999970703126,4|0,1:0|0:0,0:0:0:0:
288,192,83439,2,0,L|355:124,1,95.9999970703126,0|0,1:0|0:0,0:0:0:0:
160,160,83887,2,0,B|207:76,1,95.9999970703126,0|0,1:0|0:0,0:0:0:0:
32,160,84336,2,0,B|32:64,1,95.9999970703126,0|0,1:0|0:0,0:0:0:0:
255,159,84785,6,0,P|171:188|179:277,1,191.999994140625,4|0,1:0|1:0,0:0:0:0:
371,277,85458,1,0,0:0:0:0:
179,277,85682,2,0,B|31:154,1,191.999994140625,0|0,1:0|1:0,0:0:0:0:
128,32,86355,1,0,0:0:0:0:
480,320,86579,6,0,B|289:347,1,191.999994140625,4|0,1:0|1:0,0:0:0:0:
97,347,87252,1,0,0:0:0:0:
289,347,87477,2,0,B|375:259,1,95.9999970703126,0|0,1:0|0:0,0:0:0:0:
163,278,87926,2,0,B|95:210,1,95.9999970703126,0|0,1:0|0:0,0:0:0:0:
286,210,88374,6,0,B|416:224|416:224|459:267,2,191.999994140625,4|0|0,1:0|1:0|1:0,0:0:0:0:
480,32,89720,2,0,L|412:99,1,95.9999970703126,0|0,1:0|0:0,0:0:0:0:
32,160,90169,6,0,B|32:73|153:26,1,191.999994140625,4|0,1:0|1:0,0:0:0:0:
320,160,90842,1,0,0:0:0:0:
480,160,91066,2,0,B|380:144|358:29,1,191.999994140625,0|0,1:0|1:0,0:0:0:0:
483,29,91739,1,0,0:0:0:0:
160,32,91964,6,0,B|257:33|257:33|256:127,1,191.999994140625,4|0,1:0|1:0,0:0:0:0:
416,32,92637,1,0,0:0:0:0:
96,128,92861,1,0,1:0:0:0:
256,320,93310,5,0,1:0:0:0:
96,320,93534,1,0,0:0:0:0:
416,320,93759,2,0,B|384:224|384:224|297:195,2,191.999994140625,4|0|0,1:0|1:0|1:0,0:0:0:0:
31,320,95105,1,0,1:0:0:0:
448,64,95553,6,0,B|256:64,1,191.999994140625,4|0,1:0|1:0,0:0:0:0:
44,64,96226,2,0,L|140:64,1,95.9999970703126,0|0,0:0|1:0,0:0:0:0:
384,64,96675,1,0,1:0:0:0:
228,64,96899,1,0,1:0:0:0:
71,64,97124,1,0,1:0:0:0:
384,64,97348,6,0,B|480:64,2,80,4|0|0,1:0|0:0|1:0,0:0:0:0:
160,64,98021,2,0,B|320:64,1,160,2|2,0:0|0:0,0:0:0:0:
512,160,98694,1,0,1:0:0:0:
352,160,98919,1,0,0:0:0:0:
56,160,99143,6,0,B|136:160,2,80,4|0|0,1:0|0:0|1:0,0:0:0:0:
248,160,99816,2,0,B|408:160,1,160,2|2,0:0|0:0,0:0:0:0:
192,224,100489,5,0,1:0:0:0:
128,224,100713,1,0,0:0:0:0:
448,224,100938,1,4,1:0:0:0:
289,224,101162,1,0,0:0:0:0:
129,160,101387,5,0,1:0:0:0:
320,160,101611,1,2,0:0:0:0:
160,160,101835,1,0,0:0:0:0:
0,160,102060,1,2,0:0:0:0:
161,160,102284,1,0,1:0:0:0:
456,164,102508,1,4,1:0:0:0:
256,192,102733,12,0,106322,0:0:0:0:
