osu file format v14

[General]
AudioFilename: Toni Ten - Tu ets el meu cor encantat.mp3
AudioLeadIn: 0
PreviewTime: 68416
Countdown: 0
SampleSet: Soft
StackLeniency: 0.3
Mode: 0
LetterboxInBreaks: 0
WidescreenStoryboard: 0

[Editor]
Bookmarks: 270,106322
DistanceSpacing: 1.2
BeatDivisor: 4
GridSize: 4
TimelineZoom: 1.7

[Metadata]
Title:Tu ets el meu cor encantat
TitleUnicode:Tu ets el meu cor encantat
Artist:Toni Ten
ArtistUnicode:Toni Ten
Creator:Hanjamon
Version:Gero's Heart
Source:Dragon Ball GT
Tags:Catalán Català Gero Manuxz Opening 1 TV Size
BeatmapID:537033
BeatmapSetID:231024

[Difficulty]
HPDrainRate:7
CircleSize:4
OverallDifficulty:7
ApproachRate:8
SliderMultiplier:1.6
SliderTickRate:1

[Events]
//Background and Video events
0,0,"BG.jpg",0,0
Video,-960,"Video.avi"
//Break Periods
//Storyboard Layer 0 (Background)
//Storyboard Layer 1 (Fail)
//Storyboard Layer 2 (Pass)
//Storyboard Layer 3 (Foreground)
//Storyboard Sound Samples

[TimingPoints]
-1300,448.698773556686,4,2,0,50,1,0
25623,448.095593726662,4,2,0,50,1,0
68632,448.698773556686,4,2,0,50,1,0
68632,-83.3333333333333,4,2,0,50,0,1
82878,-83.3333333333333,4,2,0,50,0,0
82990,-83.3333333333333,4,2,0,50,0,1
97348,-100,4,2,0,50,0,0
102733,-100,4,2,0,40,0,0
103630,-100,4,2,0,30,0,0
104527,-100,4,2,0,20,0,0
105425,-100,4,2,0,10,0,0
106322,-100,4,2,0,5,0,0

[Colours]
Combo1 : 214,80,65
Combo2 : 45,175,225
Combo3 : 202,173,119

[HitObjects]
96,144,270,5,0,0:0:0:0:
96,144,382,1,0,0:0:0:0:
96,144,494,6,0,P|56:144|20:124,1,80,4|0,1:0|0:0,0:0:0:0:
84,52,943,2,0,L|200:180,1,160,0|0,1:0|1:0,0:0:0:0:
256,244,1616,1,0,0:0:0:0:
328,308,1840,2,0,P|256:337|184:308,1,160,0|0,1:0|1:0,0:0:0:0:
104,256,2513,6,0,B|128:220|128:220|128:180,1,80,0|0,0:0|1:0,0:0:0:0:
80,100,2962,1,0,0:0:0:0:
164,52,3186,2,0,L|208:32,3,40,0|0|0|0,1:0|1:0|1:0|1:0,0:0:0:0:
224,80,3635,2,0,L|268:60,3,40,0|0|0|0,1:0|1:0|1:0|1:0,0:0:0:0:
296,32,4084,6,0,B|364:32|364:32|412:32|444:76,1,160,4|0,1:0|1:0,0:0:0:0:
510,141,4757,1,0,0:0:0:0:
442,208,4981,2,0,B|432:247|432:247|442:286,1,80,0|0,1:0|0:0,0:0:0:0:
348,368,5430,2,0,B|358:329|358:329|348:290,1,80,0|0,1:0|0:0,0:0:0:0:
260,326,5879,6,0,B|188:326|188:326|176:334|176:334|96:334,1,160,0|0,1:0|1:0,0:0:0:0:
34,265,6552,1,0,0:0:0:0:
101,197,6776,2,0,P|137:197|176:174,1,80,0|0,1:0|0:0,0:0:0:0:
128,20,7225,2,0,P|92:20|53:43,1,80,0|0,1:0|0:0,0:0:0:0:
116,116,7673,6,0,L|280:60,1,160,0|0,1:0|1:0,0:0:0:0:
360,36,8347,1,0,0:0:0:0:
440,92,8571,1,0,1:0:0:0:
440,92,8683,1,0,0:0:0:0:
440,92,8795,2,0,P|460:132|460:176,2,80,0|0|0,0:0|1:0|0:0,0:0:0:0:
372,160,9468,6,0,L|504:264,1,160,0|0,1:0|1:0,0:0:0:0:
420,312,10141,1,0,0:0:0:0:
340,364,10366,2,0,B|308:340|308:340|268:340,1,80,0|0,1:0|0:0,0:0:0:0:
128,264,10814,2,0,L|208:264,1,80,0|0,1:0|0:0,0:0:0:0:
80,340,11263,6,0,P|102:264|80:188,1,160,0|0,1:0|1:0,0:0:0:0:
32,104,11936,1,0,0:0:0:0:
116,56,12160,2,0,B|156:56|156:56|196:32,1,80,0|0,1:0|0:0,0:0:0:0:
396,56,12609,2,0,B|356:56|356:56|316:32,1,80,0|0,1:0|0:0,0:0:0:0:
188,136,13058,6,0,B|256:94|256:94|324:136,1,160,0|0,1:0|1:0,0:0:0:0:
384,212,13731,2,0,P|348:232|324:264,1,80,0|0,0:0|1:0,0:0:0:0:
256,332,14180,1,0,0:0:0:0:
187,262,14404,2,0,P|162:231|128:212,1,80,0|0,1:0|0:0,0:0:0:0:
100,304,14853,6,0,L|204:180,1,160,0|0,1:0|1:0,0:0:0:0:
136,112,15526,1,0,0:0:0:0:
52,64,15750,2,0,B|80:20|128:20|128:20|196:20,1,160,0|0,1:0|1:0,0:0:0:0:
240,44,16311,1,0,0:0:0:0:
240,44,16423,1,0,0:0:0:0:
324,88,16647,2,0,L|304:256,1,160,0|0,1:0|1:0,0:0:0:0:
364,324,17320,5,0,0:0:0:0:
207,247,17545,1,0,1:0:0:0:
305,247,17769,1,0,1:0:0:0:
148,324,17994,1,0,1:0:0:0:
256,160,18218,1,0,1:0:0:0:
256,160,18330,1,0,1:0:0:0:
256,160,18442,6,0,B|256:128|256:128|252:120|252:120|260:120|260:120|256:112|256:112|256:84,1,80,4|0,1:0|0:0,0:0:0:0:
332,32,18891,1,0,1:0:0:0:
404,92,19115,2,0,B|421:135|401:170|380:204|400:252,1,160
476,304,19788,1,0,1:0:0:0:
400,364,20013,1,0,0:0:0:0:
400,364,20125,1,0,0:0:0:0:
400,364,20237,6,0,B|364:324|320:324|320:324|248:324,1,160,0|0,1:0|1:0,0:0:0:0:
168,280,20910,2,0,B|100:280|100:280|56:280|20:240,1,160
100,184,21583,2,0,B|128:156|128:156|128:112,1,80,0|0,1:0|0:0,0:0:0:0:
64,44,22032,6,0,B|128:8|188:44|188:44|320:44,1,240,4|2,1:0|0:0,0:0:0:0:
372,108,22929,1,0,0:0:0:0:
468,100,23154,2,0,L|492:180,1,80,2|0,0:0|0:0,0:0:0:0:
372,108,23602,2,0,L|320:172,1,80,2|0,0:0|0:0,0:0:0:0:
296,44,24051,2,0,L|215:68,1,80,2|0,0:0|0:0,0:0:0:0:
160,192,24500,5,2,0:0:0:0:
160,192,24612,1,0,1:0:0:0:
160,192,24724,1,0,1:0:0:0:
256,292,24948,1,2,0:0:0:0:
256,292,25061,1,0,1:0:0:0:
256,292,25173,1,0,1:0:0:0:
352,192,25397,1,0,1:0:0:0:
329,62,25623,6,0,P|256:34|183:62,1,160,4|0,1:2|1:0,0:0:0:0:
100,112,26295,1,0,0:0:0:0:
28,176,26519,2,0,B|28:216|28:216|8:252,1,80,4|0,0:3|0:0,0:0:0:0:
44,340,26967,1,0,1:0:0:0:
44,340,27191,2,0,L|128:200,1,160
100,112,27863,1,0,1:0:0:0:
44,32,28087,2,0,B|100:4|152:32|152:32|200:32,1,160,0|0,0:0|0:0,0:0:0:0:
256,112,28759,2,0,L|336:112,1,80,0|0,1:0|0:0,0:0:0:0:
372,200,29207,6,0,P|402:272|372:344,1,160,4|0,0:3|1:0,0:0:0:0:
308,272,29879,1,0,0:0:0:0:
484,236,30103,2,0,P|491:274|484:314,1,80,4|0,0:3|0:0,0:0:0:0:
372,200,30552,2,0,P|365:162|372:122,1,80,0|0,1:0|0:0,0:0:0:0:
456,72,31000,6,0,L|296:72,1,160,4|0,0:3|1:0,0:0:0:0:
208,108,31672,2,0,P|201:70|208:30,2,80
256,188,32344,1,0,1:0:0:0:
328,252,32568,1,0,0:0:0:0:
328,252,32680,1,0,0:0:0:0:
328,252,32792,2,0,B|284:256|256:283|256:283|228:256|184:252,1,160,4|0,0:3|1:0,0:0:0:0:
256,188,33464,1,0,0:0:0:0:
295,348,33688,6,0,P|256:356|218:348,1,80,4|0,0:3|0:0,0:0:0:0:
396,176,34136,2,0,P|434:167|473:175,1,80,0|0,1:0|0:0,0:0:0:0:
328,252,34584,2,0,L|360:80,1,160,4|0,0:3|1:0,0:0:0:0:
284,32,35257,2,0,B|248:8|204:8|204:8|128:8,1,160
68,84,35929,2,0,P|104:104|144:104,1,80,0|0,1:0|0:0,0:0:0:0:
129,8,36377,6,0,L|81:174,1,160,4|0,0:3|1:0,0:0:0:0:
28,240,37049,1,0,0:0:0:0:
60,332,37273,2,0,P|96:356|140:356,1,80,4|0,0:3|0:0,0:0:0:0:
220,324,37721,1,0,1:0:0:0:
308,284,37945,1,0,0:0:0:0:
308,284,38057,1,0,0:0:0:0:
308,284,38169,6,0,P|380:284|432:348,1,160,4|0,0:3|1:0,0:0:0:0:
340,372,38841,1,0,0:0:0:0:
308,284,39065,2,0,L|332:208,1,80,4|0,0:3|0:0,0:0:0:0:
436,136,39513,2,0,L|460:212,1,80,0|0,1:0|0:0,0:0:0:0:
332,207,39962,6,0,L|279:54,1,160,4|0,0:3|1:0,0:0:0:0:
184,52,40634,1,0,0:0:0:0:
184,52,40746,1,0,0:0:0:0:
184,52,40858,2,0,P|104:52|48:108,1,160,4|0,0:3|1:0,0:0:0:0:
8,192,41530,1,0,0:0:0:0:
49,279,41754,6,0,P|105:332|184:332,1,160,4|0,0:3|1:0,0:0:0:0:
280,340,42426,2,0,L|148:240,1,160
356,284,43098,2,0,L|424:335,1,80,0|0,1:0|0:0,0:0:0:0:
484,260,43546,6,0,B|508:232|526:192|526:192|508:152|484:124,1,160,4|0,0:3|1:0,0:0:0:0:
424,48,44218,1,0,0:0:0:0:
360,120,44443,2,0,B|319:152|319:152|264:152,1,106.666666666667,4|0,0:3|0:0,0:0:0:0:
208,132,44891,2,0,P|224:168|224:208,1,80,0|0,1:0|0:0,0:0:0:0:
71,323,45339,6,0,P|71:245|128:192,1,160,4|0,0:3|1:0,0:0:0:0:
160,284,46011,1,0,0:0:0:0:
196,372,46235,2,0,L|304:372,1,106.666666666667,4|0,0:3|0:0,0:0:0:0:
356,336,46683,2,0,P|312:336|284:316,1,80,0|0,1:0|0:0,0:0:0:0:
220,244,47131,6,0,B|284:204|284:204|288:208|288:208|356:164,1,160,4|0,0:3|1:0,0:0:0:0:
436,116,47803,1,0,0:0:0:0:
372,44,48027,2,0,P|328:44|296:24,1,80,4|0,0:3|0:0,0:0:0:0:
157,77,48475,2,0,P|197:76|232:96,1,80,0|0,1:0|0:0,0:0:0:0:
172,316,48923,6,0,B|148:280|139:244|139:244|148:208|172:172,1,160,4|0,0:3|1:0,0:0:0:0:
340,172,49596,2,0,B|364:208|373:244|373:244|364:280|340:316,1,160,0|0,0:0|0:0,0:0:0:0:
256,364,50268,1,0,1:0:0:0:
256,268,50492,1,0,0:0:0:0:
256,268,50604,1,0,0:0:0:0:
256,268,50716,6,0,L|256:88,1,160,4|0,0:3|1:0,0:0:0:0:
329,43,51388,2,0,P|256:15|183:43,1,160
256,108,52060,1,0,1:0:0:0:
183,170,52284,2,0,P|256:198|329:170,1,160
408,116,52956,6,0,L|344:272,1,160,0|4,1:0|0:3,0:0:0:0:
404,344,53628,1,0,1:0:0:0:
404,344,53740,1,0,1:0:0:0:
404,344,53853,1,0,1:0:0:0:
464,268,54077,1,0,1:0:0:0:
408,116,54301,6,0,P|372:96|328:96,1,80,4|0,0:3|0:0,0:0:0:0:
268,163,54749,2,0,P|304:95|268:28,1,160,0|4,1:0|0:3,0:0:0:0:
204,96,55421,1,0,0:0:0:0:
268,163,55645,1,0,1:0:0:0:
332,236,55869,1,0,0:0:0:0:
332,236,55981,1,0,0:0:0:0:
332,236,56093,6,0,L|496:200,1,160,4|0,0:3|1:0,0:0:0:0:
412,140,56765,2,0,L|372:146,2,40,0|0|4,0:0|0:0|0:3,0:0:0:0:
416,296,57213,2,0,L|455:289,2,40,0|0|0,0:0|0:0|1:0,0:0:0:0:
324,328,57661,1,0,0:0:0:0:
324,328,57773,1,0,0:0:0:0:
324,328,57885,6,0,B|248:340|248:340|240:344|240:344|160:356,1,160,4|0,0:3|1:0,0:0:0:0:
80,312,58558,2,0,P|56:280|48:240,1,80,0|4,0:0|0:3,0:0:0:0:
175,163,59006,2,0,P|167:202|143:234,1,80,0|0,0:0|1:0,0:0:0:0:
83,158,59454,1,0,0:0:0:0:
83,158,59566,1,0,0:0:0:0:
83,158,59678,6,0,L|240:84,1,160,4|0,0:3|1:0,0:0:0:0:
264,144,60275,2,0,P|283:192|264:240,2,106.666666666667,0|4|0,0:0|0:3|0:0,0:0:0:0:
304,92,61022,2,0,L|212:84,1,80,0|0,1:0|0:0,0:0:0:0:
83,158,61470,6,0,B|83:228|83:228|83:247|92:288|128:312,1,160,4|0,0:3|1:0,0:0:0:0:
188,376,62142,2,0,B|224:364|256:335|256:335|288:364|324:376,1,160
391,306,62814,2,0,P|399:267|391:228,1,80,0|0,1:0|0:0,0:0:0:0:
303,79,63263,6,0,P|285:135|304:192,2,120,4|0|0,0:3|0:0|0:0,0:0:0:0:
392,40,64159,2,0,L|212:16,1,160,4|0,0:3|1:0,0:0:0:0:
172,92,64831,1,0,0:0:0:0:
240,160,65055,6,0,P|269:231|240:304,1,160,4|0,0:3|1:0,0:0:0:0:
176,232,65727,1,0,0:0:0:0:
176,232,65839,1,0,0:0:0:0:
176,232,65951,2,0,B|152:208|120:208|120:208|100:208,1,80,4|0,0:3|0:0,0:0:0:0:
40,280,66399,2,0,B|64:304|96:304|96:304|116:304,1,80,0|0,1:0|0:0,0:0:0:0:
188,364,66847,6,0,P|256:328|324:364,1,160,4|2,0:0|0:0,0:0:0:0:
398,304,67519,2,0,B|416:304|416:304|448:304|472:280,1,80,0|2,0:0|0:0,0:0:0:0:
409,208,67968,1,0,1:0:0:0:
409,208,68080,1,0,1:0:0:0:
409,208,68192,2,0,B|392:208|392:208|360:208|336:232,1,80,0|0,1:0|1:0,0:0:0:0:
398,304,68632,6,0,L|424:92,1,191.999994140625,4|0,1:0|1:0,0:0:0:0:
356,28,69305,1,0,0:0:0:0:
256,68,69529,2,0,L|164:44,1,95.9999970703126,0|0,1:0|0:0,0:0:0:0:
12,100,69978,2,0,L|104:124,1,95.9999970703126,0|0,1:0|0:0,0:0:0:0:
184,192,70426,6,0,P|152:280|184:368,1,191.999994140625,0|0,1:0|1:0,0:0:0:0:
256,292,71099,1,0,0:0:0:0:
327,368,71324,2,0,P|359:280|328:192,1,191.999994140625,0|0,1:0|1:0,0:0:0:0:
256,116,71997,5,0,0:0:0:0:
256,116,72109,1,0,0:0:0:0:
256,116,72221,2,0,B|296:88|296:88|356:88,1,95.9999970703126,0|0,1:0|0:0,0:0:0:0:
436,140,72670,2,0,P|447:94|435:48,1,95.9999970703126,0|0,1:0|0:0,0:0:0:0:
392,20,73006,1,0,0:0:0:0:
392,20,73118,1,0,1:0:0:0:
352,204,73343,6,0,P|340:249|352:295,2,95.9999970703126,0|0|0,0:0|1:0|0:0,0:0:0:0:
444,252,74016,2,0,L|236:252,1,191.999994140625,0|0,1:0|1:0,0:0:0:0:
164,308,74689,1,0,0:0:0:0:
72,252,74913,2,0,P|40:216|24:168,1,95.9999970703126,0|0,1:0|0:0,0:0:0:0:
175,79,75362,2,0,P|159:124|128:160,1,95.9999970703126,0|0,1:0|0:0,0:0:0:0:
68,72,75811,6,0,L|260:8,1,191.999994140625,4|0,1:0|1:0,0:0:0:0:
304,104,76484,1,0,0:0:0:0:
304,104,76596,1,0,0:0:0:0:
304,104,76708,2,0,L|408:96,1,95.9999970703126,0|0,1:0|0:0,0:0:0:0:
384,200,77157,2,0,L|488:224,1,95.9999970703126,0|0,1:0|0:0,0:0:0:0:
340,312,77605,6,0,P|256:352|172:312,1,191.999994140625,0|0,1:0|1:0,0:0:0:0:
256,244,78279,1,0,0:0:0:0:
172,180,78503,2,0,P|255:140|339:180,1,191.999994140625,0|0,1:0|1:0,0:0:0:0:
256,244,79176,1,0,0:0:0:0:
256,244,79288,1,0,0:0:0:0:
256,244,79400,6,0,L|168:296,1,95.9999970703126,0|0,1:0|0:0,0:0:0:0:
172,180,79849,2,0,L|97:120,1,95.9999970703126,0|0,1:0|0:0,0:0:0:0:
196,80,80298,2,0,L|284:28,1,95.9999970703126,0|0,1:0|0:0,0:0:0:0:
280,144,80747,2,0,L|360:208,1,95.9999970703126,0|0,1:0|0:0,0:0:0:0:
408,296,81195,6,0,B|380:248|372:208|372:208|380:168|408:120,1,191.999994140625,0|0,1:0|1:0,0:0:0:0:
468,208,81868,1,0,0:0:0:0:
468,208,81980,1,0,0:0:0:0:
468,208,82092,1,0,1:0:0:0:
408,296,82317,2,0,L|384:340,5,47.9999985351563,0|0|0|0|0|0,1:0|1:0|1:0|1:0|1:0|1:0,0:0:0:0:
356,384,82990,6,0,B|280:384|280:384|244:368|244:368|168:368,1,191.999994140625,4|0,1:0|1:0,0:0:0:0:
92,293,83663,1,0,0:0:0:0:
166,218,83887,2,0,L|266:218,1,95.9999970703126,0|0,1:0|0:0,0:0:0:0:
380,120,84336,2,0,L|284:120,1,95.9999970703126,0|0,1:0|0:0,0:0:0:0:
444,203,84785,6,0,P|483:119|444:36,1,191.999994140625,0|0,1:0|1:0,0:0:0:0:
380,120,85458,1,0,0:0:0:0:
300,188,85682,2,0,B|256:206|256:206|212:188,1,95.9999970703126,0|0,1:0|0:0,0:0:0:0:
132,120,86131,1,0,1:0:0:0:
67,36,86355,1,0,0:0:0:0:
67,36,86467,1,0,0:0:0:0:
67,36,86579,6,0,P|28:119|67:203,1,191.999994140625,0|0,1:0|1:0,0:0:0:0:
8,292,87252,1,0,0:0:0:0:
96,352,87477,2,0,B|140:352|140:352|180:384,1,95.9999970703126,0|0,1:0|0:0,0:0:0:0:
298,347,87926,2,0,L|224:288,1,95.9999970703126,0|0,1:0|0:0,0:0:0:0:
256,188,88374,6,0,L|412:312,2,191.999994140625,0|0|0,1:0|1:0|1:0,0:0:0:0:
184,112,89496,1,0,0:0:0:0:
256,32,89720,1,0,1:0:0:0:
328,112,89945,1,0,0:0:0:0:
328,112,90057,1,0,0:0:0:0:
328,112,90169,5,0,1:0:0:0:
256,188,90393,1,0,0:0:0:0:
256,188,90506,1,0,0:0:0:0:
256,188,90618,1,0,1:0:0:0:
184,112,90842,1,0,0:0:0:0:
184,112,90954,1,0,0:0:0:0:
184,112,91066,6,0,P|136:112|88:132,1,95.9999970703126,0|0,1:0|0:0,0:0:0:0:
96,328,91515,2,0,P|144:328|192:308,1,95.9999970703126,0|0,1:0|0:0,0:0:0:0:
124,224,91964,2,0,L|56:40,1,191.999994140625,0|0,1:0|1:0,0:0:0:0:
160,24,92637,2,0,L|228:208,1,191.999994140625
296,284,93310,1,0,1:0:0:0:
368,360,93534,1,0,0:0:0:0:
368,360,93646,1,0,0:0:0:0:
368,360,93759,6,0,P|428:360|500:260,1,191.999994140625,0|0,1:0|1:0,0:0:0:0:
420,192,94432,1,0,0:0:0:0:
332,132,94656,2,0,L|368:36,2,95.9999970703126,0|0|0,1:0|0:0|1:0,0:0:0:0:
240,80,95329,1,0,0:0:0:0:
240,80,95441,1,0,0:0:0:0:
240,80,95553,6,0,L|172:264,1,191.999994140625,0|0,1:0|1:0,0:0:0:0:
92,192,96226,2,0,P|81:146|92:100,1,95.9999970703126,0|0,0:0|1:0,0:0:0:0:
174,260,96675,2,0,P|184:306|173:352,1,95.9999970703126,0|0,1:0|1:0,0:0:0:0:
68,308,97124,1,0,1:0:0:0:
192,156,97348,6,0,L|352:128,1,160,4|0,1:0|1:0,0:0:0:0:
416,200,98021,2,0,P|446:128|416:56,1,160,2|2,0:0|0:0,0:0:0:0:
349,128,98694,1,0,1:0:0:0:
416,200,98919,1,0,0:0:0:0:
356,272,99143,6,0,B|316:272|316:272|280:300,1,80,2|0,0:0|0:0,0:0:0:0:
188,312,99592,1,0,1:0:0:0:
221,222,99816,2,0,L|350:128,1,160,2|2,0:0|0:0,0:0:0:0:
420,60,100489,1,0,1:0:0:0:
332,24,100713,1,0,0:0:0:0:
332,24,100938,6,0,B|292:32|256:8|256:8|220:32|180:24,1,160,2|0,0:0|1:0,0:0:0:0:
92,60,101611,1,2,0:0:0:0:
164,124,101835,2,0,P|192:152|204:192,1,80,0|2,0:0|0:0,0:0:0:0:
348,124,102284,2,0,P|320:152|308:192,1,80,0|2,1:0|0:0,0:0:0:0:
256,192,102620,12,0,106322,0:0:0:0:
