osu file format v14

[General]
AudioFilename: Toni Ten - Tu ets el meu cor encantat.mp3
AudioLeadIn: 0
PreviewTime: 68416
Countdown: 0
SampleSet: Normal
StackLeniency: 0.7
Mode: 1
LetterboxInBreaks: 0
WidescreenStoryboard: 0

[Editor]
DistanceSpacing: 1.2
BeatDivisor: 4
GridSize: 8
TimelineZoom: 1.9

[Metadata]
Title:Tu ets el meu cor encantat
TitleUnicode:Tu ets el meu cor encantat
Artist:Toni Ten
ArtistUnicode:Toni Ten
Creator:Hanjamon
Version:Taiko Basic
Source:Dragon Ball GT
Tags:Catalán Català Gero Manuxz Opening 1 TV Size
BeatmapID:538116
BeatmapSetID:231024

[Difficulty]
HPDrainRate:3
CircleSize:5
OverallDifficulty:3
ApproachRate:5
SliderMultiplier:1.4
SliderTickRate:1

[Events]
//Background and Video events
0,0,"BG.jpg",0,0
//Break Periods
//Storyboard Layer 0 (Background)
//Storyboard Layer 1 (Fail)
//Storyboard Layer 2 (Pass)
//Storyboard Layer 3 (Foreground)
//Storyboard Sound Samples

[TimingPoints]
-1300,448.698773556686,4,1,0,70,1,0
4084,-100,4,1,0,70,0,1
22032,-100,4,1,0,70,0,0
25623,448.095593726662,4,1,0,70,1,0
68632,448.698773556686,4,1,0,70,1,0
68632,-100,4,1,0,70,0,1
102508,-100,4,1,0,70,0,0
104527,-100,4,1,0,40,0,0
105873,-100,4,1,0,20,0,0

[Colours]
Combo1 : 214,80,65
Combo2 : 45,175,225
Combo3 : 202,173,119

[HitObjects]
264,264,494,5,12,0:0:0:0:
280,248,2289,1,8,0:0:0:0:
280,248,3186,1,8,0:0:0:0:
280,248,4084,1,4,0:0:0:0:
240,192,5879,1,8,0:0:0:0:
256,168,6776,1,8,0:0:0:0:
248,192,7673,1,12,0:0:0:0:
256,160,9468,1,0,0:0:0:0:
272,160,10366,1,0,0:0:0:0:
272,136,11263,1,4,0:0:0:0:
232,168,13058,1,8,0:0:0:0:
240,176,14853,1,0,0:0:0:0:
240,176,15750,1,0,0:0:0:0:
232,192,16647,1,12,0:0:0:0:
256,160,18442,1,4,0:0:0:0:
216,160,20237,1,12,0:0:0:0:
216,152,22032,1,12,0:0:0:0:
256,176,25621,1,4,0:0:0:0:
264,136,27415,1,8,0:0:0:0:
288,160,28311,1,8,0:0:0:0:
264,152,29207,1,0,0:0:0:0:
280,152,31000,1,8,0:0:0:0:
280,152,31896,1,0,0:0:0:0:
264,160,32792,1,0,0:0:0:0:
296,152,34584,1,8,0:0:0:0:
400,144,35481,1,0,0:0:0:0:
248,144,36377,1,8,0:0:0:0:
248,160,38169,1,0,0:0:0:0:
264,152,39065,1,0,0:0:0:0:
256,168,39962,1,12,0:0:0:0:
264,168,41754,1,8,0:0:0:0:
296,168,42650,1,0,0:0:0:0:
240,160,43546,1,12,0:0:0:0:
248,152,45339,1,8,0:0:0:0:
208,160,47131,1,8,0:0:0:0:
288,136,48923,1,0,0:0:0:0:
272,160,49820,1,8,0:0:0:0:
312,192,50716,1,8,0:0:0:0:
280,152,52508,1,0,0:0:0:0:
288,176,54301,1,0,0:0:0:0:
320,168,55197,1,0,0:0:0:0:
272,152,56093,1,8,0:0:0:0:
288,176,57885,1,0,0:0:0:0:
328,168,58782,1,0,0:0:0:0:
280,152,59678,1,8,0:0:0:0:
280,144,61470,1,4,0:0:0:0:
272,192,63263,1,0,0:0:0:0:
136,152,65055,1,12,0:0:0:0:
264,208,66847,1,8,0:0:0:0:
264,208,67743,1,8,0:0:0:0:
272,192,68632,1,12,0:0:0:0:
240,192,70426,1,8,0:0:0:0:
256,168,71324,1,8,0:0:0:0:
248,192,72221,1,12,0:0:0:0:
176,144,74016,1,0,0:0:0:0:
272,160,74913,1,0,0:0:0:0:
272,136,75811,1,4,0:0:0:0:
272,208,77605,1,8,0:0:0:0:
272,184,79400,1,8,0:0:0:0:
248,192,80298,1,8,0:0:0:0:
248,192,81195,1,8,0:0:0:0:
288,144,82990,1,12,0:0:0:0:
256,216,84785,1,8,0:0:0:0:
280,208,85682,1,8,0:0:0:0:
272,176,86579,1,12,0:0:0:0:
272,192,88374,1,0,0:0:0:0:
296,184,89272,1,0,0:0:0:0:
328,256,90169,1,4,0:0:0:0:
232,168,91964,1,8,0:0:0:0:
240,176,93759,1,0,0:0:0:0:
240,176,94656,1,0,0:0:0:0:
232,192,95553,1,12,0:0:0:0:
256,160,97348,1,4,0:0:0:0:
216,160,99143,1,12,0:0:0:0:
216,152,100938,5,12,0:0:0:0:
168,168,101835,1,4,0:0:0:0:
256,192,102508,12,0,106322,0:0:0:0:
