osu file format v14

[General]
AudioFilename: Toni Ten - Tu ets el meu cor encantat.mp3
AudioLeadIn: 0
PreviewTime: 68416
Countdown: 0
SampleSet: Normal
StackLeniency: 0.7
Mode: 1
LetterboxInBreaks: 0
WidescreenStoryboard: 0

[Editor]
DistanceSpacing: 1.2
BeatDivisor: 4
GridSize: 8
TimelineZoom: 1.9

[Metadata]
Title:Tu ets el meu cor encantat
TitleUnicode:Tu ets el meu cor encantat
Artist:Toni Ten
ArtistUnicode:Toni Ten
Creator:Hanjamon
Version:Inner Oni
Source:Dragon Ball GT
Tags:Catalán Català Gero Manuxz Opening 1 TV Size
BeatmapID:537034
BeatmapSetID:231024

[Difficulty]
HPDrainRate:6
CircleSize:5
OverallDifficulty:5
ApproachRate:5
SliderMultiplier:1.4
SliderTickRate:1

[Events]
//Background and Video events
0,0,"BG.jpg",0,0
//Break Periods
//Storyboard Layer 0 (Background)
//Storyboard Layer 1 (Fail)
//Storyboard Layer 2 (Pass)
//Storyboard Layer 3 (Foreground)
//Storyboard Sound Samples

[TimingPoints]
-1300,448.698773556686,4,1,0,70,1,0
4084,-100,4,1,0,70,0,1
22032,-100,4,1,0,70,0,0
25623,448.095593726662,4,1,0,70,1,0
68632,448.698773556686,4,1,0,70,1,0
68632,-100,4,1,0,70,0,1
102508,-100,4,1,0,70,0,0

[Colours]
Combo1 : 214,80,65
Combo2 : 45,175,225
Combo3 : 202,173,119

[HitObjects]
248,296,270,5,8,0:0:0:0:
264,264,382,1,0,0:0:0:0:
264,264,494,1,8,0:0:0:0:
264,256,719,1,0,0:0:0:0:
264,256,943,1,8,0:0:0:0:
264,256,1392,1,8,0:0:0:0:
272,256,1840,1,8,0:0:0:0:
280,248,2289,1,8,0:0:0:0:
280,248,2513,1,8,0:0:0:0:
280,248,2738,1,0,0:0:0:0:
280,248,2962,1,8,0:0:0:0:
280,248,3186,1,0,0:0:0:0:
280,248,3299,1,0,0:0:0:0:
280,248,3411,1,8,0:0:0:0:
280,248,3523,1,0,0:0:0:0:
280,248,3635,1,8,0:0:0:0:
280,248,3747,1,0,0:0:0:0:
280,248,3860,1,8,0:0:0:0:
280,248,4084,1,4,0:0:0:0:
256,216,4533,1,12,0:0:0:0:
256,216,4981,1,8,0:0:0:0:
272,224,5206,1,0,0:0:0:0:
304,152,5318,1,0,0:0:0:0:
272,224,5430,1,8,0:0:0:0:
272,224,5542,1,8,0:0:0:0:
272,232,5654,1,0,0:0:0:0:
240,192,5879,1,8,0:0:0:0:
264,168,6103,1,0,0:0:0:0:
264,168,6215,1,0,0:0:0:0:
264,168,6327,1,8,0:0:0:0:
256,168,6552,1,0,0:0:0:0:
256,168,6776,1,8,0:0:0:0:
256,168,6888,1,8,0:0:0:0:
256,168,7000,1,0,0:0:0:0:
256,168,7113,1,0,0:0:0:0:
256,168,7225,1,8,0:0:0:0:
256,176,7449,1,0,0:0:0:0:
248,192,7673,1,12,0:0:0:0:
248,184,7898,1,0,0:0:0:0:
248,184,8122,1,12,0:0:0:0:
248,136,8571,1,8,0:0:0:0:
248,136,8795,1,0,0:0:0:0:
256,160,9020,1,8,0:0:0:0:
256,160,9132,1,0,0:0:0:0:
256,160,9244,1,0,0:0:0:0:
176,144,9356,1,0,0:0:0:0:
256,160,9468,1,8,0:0:0:0:
272,160,9693,1,0,0:0:0:0:
288,160,9917,1,8,0:0:0:0:
280,160,10029,1,8,0:0:0:0:
280,160,10141,1,0,0:0:0:0:
312,160,10253,1,0,0:0:0:0:
272,160,10366,1,8,0:0:0:0:
272,160,10590,1,0,0:0:0:0:
272,160,10814,1,8,0:0:0:0:
272,160,10927,1,0,0:0:0:0:
272,160,11039,1,8,0:0:0:0:
272,136,11263,1,12,0:0:0:0:
272,168,11487,1,0,0:0:0:0:
280,168,11712,1,12,0:0:0:0:
288,168,12160,1,8,0:0:0:0:
288,168,12273,1,8,0:0:0:0:
288,168,12385,1,0,0:0:0:0:
240,160,12609,1,8,0:0:0:0:
240,152,12834,1,0,0:0:0:0:
232,168,13058,1,8,0:0:0:0:
232,168,13170,1,8,0:0:0:0:
232,168,13282,1,0,0:0:0:0:
232,168,13394,1,0,0:0:0:0:
232,168,13507,1,8,0:0:0:0:
240,176,13731,1,0,0:0:0:0:
232,176,13955,1,8,0:0:0:0:
232,176,14067,1,8,0:0:0:0:
232,176,14180,1,0,0:0:0:0:
232,176,14404,1,8,0:0:0:0:
240,176,14628,1,0,0:0:0:0:
240,176,14740,1,0,0:0:0:0:
240,176,14853,1,8,0:0:0:0:
240,176,15077,1,0,0:0:0:0:
240,176,15301,1,8,0:0:0:0:
240,176,15414,1,0,0:0:0:0:
240,176,15526,1,0,0:0:0:0:
240,176,15638,1,0,0:0:0:0:
240,176,15750,1,8,0:0:0:0:
200,160,15974,1,0,0:0:0:0:
240,160,16199,1,8,0:0:0:0:
240,160,16274,1,8,0:0:0:0:
240,160,16348,1,8,0:0:0:0:
240,160,16423,1,0,0:0:0:0:
232,192,16647,1,12,0:0:0:0:
280,176,16872,1,0,0:0:0:0:
280,176,17096,1,12,0:0:0:0:
240,152,17320,1,0,0:0:0:0:
240,152,17545,1,0,0:0:0:0:
240,152,17657,1,0,0:0:0:0:
240,152,17769,1,0,0:0:0:0:
240,152,17994,1,8,0:0:0:0:
240,152,18218,1,8,0:0:0:0:
256,160,18442,1,4,0:0:0:0:
256,160,18667,1,0,0:0:0:0:
256,168,18891,1,12,0:0:0:0:
208,152,19115,1,0,0:0:0:0:
208,160,19564,1,8,0:0:0:0:
208,192,19676,1,8,0:0:0:0:
224,152,19788,1,8,0:0:0:0:
224,152,20013,1,0,0:0:0:0:
216,160,20237,1,12,0:0:0:0:
216,200,20461,1,0,0:0:0:0:
200,152,20686,1,12,0:0:0:0:
176,160,20910,1,12,0:0:0:0:
184,176,21359,1,0,0:0:0:0:
168,184,21583,1,8,0:0:0:0:
168,184,21695,1,8,0:0:0:0:
168,184,21807,1,0,0:0:0:0:
216,152,22032,1,12,0:0:0:0:
288,160,22481,1,0,0:0:0:0:
240,152,22929,1,8,0:0:0:0:
240,152,23154,1,0,0:0:0:0:
248,152,23378,1,8,0:0:0:0:
272,144,23490,1,8,0:0:0:0:
248,152,23602,1,0,0:0:0:0:
248,152,23827,1,8,0:0:0:0:
248,152,24051,1,0,0:0:0:0:
248,152,24275,1,8,0:0:0:0:
272,136,24388,1,0,0:0:0:0:
248,152,24500,1,8,0:0:0:0:
224,248,24724,1,0,0:0:0:0:
264,184,24948,1,0,0:0:0:0:
264,184,25061,1,8,0:0:0:0:
264,184,25173,1,8,0:0:0:0:
256,176,25397,1,8,0:0:0:0:
256,176,25621,1,4,0:0:0:0:
288,160,26071,1,8,0:0:0:0:
288,160,26519,1,8,0:0:0:0:
232,128,26743,1,0,0:0:0:0:
264,144,26967,1,8,0:0:0:0:
264,144,27079,1,8,0:0:0:0:
264,144,27191,1,0,0:0:0:0:
264,136,27415,1,8,0:0:0:0:
288,160,27863,1,8,0:0:0:0:
288,160,28087,1,0,0:0:0:0:
288,160,28311,1,0,0:0:0:0:
288,160,28535,1,0,0:0:0:0:
288,160,28647,1,0,0:0:0:0:
296,160,28759,1,8,0:0:0:0:
264,152,29207,1,0,0:0:0:0:
280,160,29431,1,0,0:0:0:0:
280,160,29655,1,8,0:0:0:0:
240,152,30103,1,0,0:0:0:0:
240,152,30328,1,8,0:0:0:0:
280,152,30552,1,8,0:0:0:0:
280,160,30664,1,8,0:0:0:0:
280,152,30776,1,0,0:0:0:0:
280,152,31000,1,8,0:0:0:0:
256,160,31448,1,8,0:0:0:0:
256,160,31672,1,0,0:0:0:0:
256,160,31896,1,0,0:0:0:0:
256,152,32120,1,0,0:0:0:0:
328,144,32232,1,0,0:0:0:0:
256,152,32344,1,8,0:0:0:0:
264,160,32792,1,0,0:0:0:0:
264,152,33016,1,0,0:0:0:0:
264,152,33240,1,8,0:0:0:0:
288,160,33688,1,8,0:0:0:0:
288,152,33912,1,0,0:0:0:0:
288,152,34024,1,0,0:0:0:0:
288,160,34136,1,8,0:0:0:0:
296,152,34360,1,0,0:0:0:0:
296,152,34584,1,8,0:0:0:0:
296,152,35033,1,8,0:0:0:0:
264,144,35257,1,0,0:0:0:0:
312,144,35369,1,0,0:0:0:0:
264,144,35481,1,0,0:0:0:0:
264,136,35705,1,0,0:0:0:0:
264,144,35929,1,8,0:0:0:0:
248,144,36153,1,0,0:0:0:0:
248,144,36377,1,8,0:0:0:0:
304,160,36825,1,8,0:0:0:0:
272,176,37049,1,0,0:0:0:0:
248,160,37161,1,0,0:0:0:0:
272,176,37273,1,0,0:0:0:0:
304,160,37497,1,0,0:0:0:0:
272,176,37609,1,0,0:0:0:0:
272,176,37721,1,8,0:0:0:0:
248,160,37945,1,8,0:0:0:0:
248,160,38169,1,4,0:0:0:0:
272,160,38393,1,0,0:0:0:0:
272,160,38617,1,8,0:0:0:0:
264,152,39065,1,8,0:0:0:0:
272,160,39177,1,0,0:0:0:0:
272,160,39289,1,0,0:0:0:0:
272,160,39401,1,0,0:0:0:0:
272,168,39513,1,8,0:0:0:0:
304,176,39625,1,8,0:0:0:0:
304,184,39738,1,0,0:0:0:0:
256,168,39962,1,12,0:0:0:0:
296,184,40410,1,8,0:0:0:0:
296,184,40634,1,0,0:0:0:0:
296,184,40858,1,8,0:0:0:0:
296,184,40970,1,8,0:0:0:0:
296,184,41082,1,0,0:0:0:0:
296,192,41306,1,8,0:0:0:0:
256,160,41530,1,0,0:0:0:0:
264,168,41754,1,8,0:0:0:0:
264,168,41866,1,8,0:0:0:0:
264,168,41978,1,0,0:0:0:0:
264,168,42090,1,0,0:0:0:0:
264,168,42202,1,8,0:0:0:0:
296,168,42426,1,0,0:0:0:0:
232,144,42650,1,8,0:0:0:0:
240,168,42874,1,0,0:0:0:0:
192,136,42986,1,0,0:0:0:0:
192,136,43098,1,8,0:0:0:0:
232,160,43322,1,0,0:0:0:0:
240,160,43546,1,12,0:0:0:0:
232,168,43770,1,0,0:0:0:0:
232,168,43994,1,8,0:0:0:0:
200,176,44443,1,0,0:0:0:0:
264,160,44555,1,0,0:0:0:0:
264,112,44779,1,0,0:0:0:0:
264,120,44891,1,8,0:0:0:0:
248,144,45115,1,0,0:0:0:0:
248,152,45339,1,8,0:0:0:0:
248,176,45563,1,0,0:0:0:0:
184,160,45675,1,0,0:0:0:0:
248,176,45787,1,8,0:0:0:0:
208,168,46235,1,0,0:0:0:0:
264,152,46347,1,0,0:0:0:0:
208,168,46571,1,0,0:0:0:0:
208,168,46683,1,8,0:0:0:0:
208,168,46907,1,8,0:0:0:0:
208,160,47131,1,0,0:0:0:0:
208,160,47355,1,0,0:0:0:0:
208,160,47467,1,0,0:0:0:0:
208,160,47579,1,8,0:0:0:0:
272,144,48027,1,0,0:0:0:0:
336,224,48251,1,8,0:0:0:0:
304,160,48363,1,8,0:0:0:0:
304,160,48475,1,0,0:0:0:0:
272,144,48699,1,8,0:0:0:0:
288,136,48923,1,8,0:0:0:0:
288,144,49035,1,8,0:0:0:0:
288,144,49148,1,0,0:0:0:0:
288,152,49260,1,0,0:0:0:0:
288,152,49372,1,8,0:0:0:0:
312,168,49596,1,0,0:0:0:0:
336,184,50044,1,0,0:0:0:0:
288,152,50268,1,8,0:0:0:0:
336,184,50492,1,0,0:0:0:0:
312,192,50716,1,8,0:0:0:0:
312,192,50828,1,0,0:0:0:0:
312,192,50940,1,0,0:0:0:0:
304,184,51052,1,0,0:0:0:0:
296,184,51164,1,8,0:0:0:0:
304,184,51388,1,0,0:0:0:0:
240,128,51612,1,8,0:0:0:0:
304,184,51836,1,0,0:0:0:0:
304,184,51948,1,0,0:0:0:0:
304,184,52060,1,8,0:0:0:0:
280,152,52284,1,0,0:0:0:0:
280,152,52508,1,8,0:0:0:0:
264,152,52956,1,8,0:0:0:0:
272,152,53404,1,0,0:0:0:0:
272,152,53516,1,0,0:0:0:0:
272,152,53628,1,0,0:0:0:0:
272,152,53740,1,0,0:0:0:0:
272,152,53853,1,8,0:0:0:0:
272,152,53965,1,8,0:0:0:0:
272,152,54077,1,0,0:0:0:0:
272,152,54189,1,0,0:0:0:0:
272,152,54301,1,8,0:0:0:0:
248,152,54525,1,0,0:0:0:0:
288,176,54749,1,12,0:0:0:0:
240,144,54973,1,0,0:0:0:0:
248,152,55085,1,0,0:0:0:0:
248,152,55197,1,0,0:0:0:0:
248,152,55421,1,0,0:0:0:0:
296,192,55645,1,12,0:0:0:0:
264,176,55869,1,0,0:0:0:0:
264,176,55981,1,8,0:0:0:0:
264,176,56093,1,0,0:0:0:0:
240,160,56317,1,0,0:0:0:0:
240,160,56541,1,8,0:0:0:0:
208,152,56765,1,8,0:0:0:0:
208,136,56877,1,8,0:0:0:0:
208,152,56989,1,0,0:0:0:0:
208,152,57101,1,0,0:0:0:0:
208,152,57213,1,8,0:0:0:0:
200,152,57437,1,8,0:0:0:0:
160,152,57661,1,0,0:0:0:0:
256,168,57885,1,8,0:0:0:0:
256,168,57997,1,8,0:0:0:0:
256,168,58109,1,0,0:0:0:0:
288,176,58333,1,12,0:0:0:0:
304,128,58558,1,0,0:0:0:0:
304,136,58670,1,8,0:0:0:0:
304,136,58782,1,0,0:0:0:0:
304,144,59006,1,0,0:0:0:0:
280,152,59230,1,12,0:0:0:0:
304,136,59454,1,8,0:0:0:0:
304,144,59566,1,0,0:0:0:0:
304,144,59678,1,0,0:0:0:0:
296,184,59902,1,0,0:0:0:0:
272,136,60126,1,8,0:0:0:0:
288,168,60238,1,0,0:0:0:0:
240,160,60574,1,0,0:0:0:0:
264,144,60910,1,8,0:0:0:0:
264,144,61246,1,8,0:0:0:0:
280,144,61470,1,4,0:0:0:0:
256,168,61918,1,8,0:0:0:0:
264,184,62142,1,0,0:0:0:0:
264,184,62254,1,0,0:0:0:0:
264,184,62366,1,0,0:0:0:0:
248,168,62590,1,0,0:0:0:0:
264,184,62814,1,8,0:0:0:0:
272,192,62926,1,8,0:0:0:0:
272,192,63263,1,0,0:0:0:0:
272,192,63599,1,8,0:0:0:0:
208,152,63935,1,8,0:0:0:0:
208,152,64159,1,0,0:0:0:0:
208,152,64383,1,0,0:0:0:0:
208,152,64607,1,8,0:0:0:0:
136,152,65055,1,4,0:0:0:0:
232,152,65503,1,8,0:0:0:0:
208,136,65727,1,8,0:0:0:0:
208,136,65839,1,8,0:0:0:0:
208,144,65951,1,0,0:0:0:0:
224,144,66175,1,0,0:0:0:0:
216,144,66399,1,8,0:0:0:0:
224,144,66511,1,0,0:0:0:0:
224,144,66623,1,0,0:0:0:0:
264,208,66847,1,8,0:0:0:0:
264,208,67071,1,8,0:0:0:0:
280,208,67183,1,8,0:0:0:0:
264,208,67295,1,0,0:0:0:0:
264,208,67519,1,8,0:0:0:0:
264,208,67743,1,0,0:0:0:0:
272,192,67968,1,8,0:0:0:0:
272,192,68080,1,8,0:0:0:0:
272,192,68192,1,8,0:0:0:0:
296,200,68416,1,8,0:0:0:0:
272,192,68632,1,12,0:0:0:0:
256,216,69080,1,12,0:0:0:0:
256,216,69529,1,8,0:0:0:0:
272,224,69753,1,0,0:0:0:0:
256,160,69865,1,0,0:0:0:0:
272,224,69978,1,8,0:0:0:0:
272,224,70090,1,8,0:0:0:0:
272,232,70202,1,0,0:0:0:0:
240,192,70426,1,8,0:0:0:0:
264,168,70651,1,0,0:0:0:0:
264,168,70763,1,0,0:0:0:0:
264,168,70875,1,8,0:0:0:0:
256,168,71099,1,0,0:0:0:0:
256,168,71324,1,8,0:0:0:0:
256,168,71436,1,8,0:0:0:0:
256,168,71548,1,0,0:0:0:0:
256,168,71660,1,0,0:0:0:0:
256,168,71772,1,8,0:0:0:0:
256,176,71997,1,0,0:0:0:0:
248,192,72221,1,12,0:0:0:0:
248,184,72445,1,0,0:0:0:0:
248,184,72670,1,12,0:0:0:0:
248,136,73118,1,8,0:0:0:0:
248,136,73343,1,0,0:0:0:0:
256,160,73455,1,0,0:0:0:0:
256,160,73567,1,8,0:0:0:0:
256,160,73679,1,8,0:0:0:0:
256,160,73792,1,0,0:0:0:0:
176,144,74016,1,8,0:0:0:0:
240,152,74128,1,8,0:0:0:0:
272,160,74240,1,0,0:0:0:0:
288,160,74465,1,8,0:0:0:0:
280,160,74689,1,0,0:0:0:0:
248,144,74801,1,0,0:0:0:0:
272,160,74913,1,8,0:0:0:0:
272,160,75138,1,8,0:0:0:0:
272,160,75250,1,8,0:0:0:0:
272,160,75362,1,0,0:0:0:0:
312,160,75474,1,0,0:0:0:0:
272,160,75586,1,0,0:0:0:0:
272,136,75811,1,12,0:0:0:0:
272,168,76035,1,0,0:0:0:0:
280,168,76259,1,12,0:0:0:0:
264,200,76708,1,8,0:0:0:0:
264,200,76820,1,8,0:0:0:0:
264,200,76932,1,0,0:0:0:0:
272,208,77157,1,8,0:0:0:0:
272,200,77381,1,0,0:0:0:0:
280,200,77605,1,8,0:0:0:0:
280,184,77718,1,0,0:0:0:0:
280,184,77830,1,0,0:0:0:0:
272,176,77942,1,0,0:0:0:0:
272,176,78054,1,8,0:0:0:0:
264,168,78166,1,8,0:0:0:0:
264,168,78279,1,0,0:0:0:0:
248,168,78503,1,8,0:0:0:0:
280,184,78727,1,0,0:0:0:0:
280,184,78839,1,0,0:0:0:0:
272,184,78952,1,8,0:0:0:0:
272,184,79064,1,8,0:0:0:0:
272,184,79176,1,0,0:0:0:0:
296,176,79400,1,8,0:0:0:0:
296,184,79625,1,0,0:0:0:0:
304,184,79737,1,0,0:0:0:0:
304,184,79849,1,8,0:0:0:0:
272,176,80073,1,0,0:0:0:0:
272,176,80298,1,8,0:0:0:0:
272,176,80410,1,8,0:0:0:0:
272,184,80522,1,0,0:0:0:0:
248,192,80746,1,8,0:0:0:0:
248,192,80971,1,0,0:0:0:0:
248,184,81195,1,8,0:0:0:0:
248,184,81307,1,8,0:0:0:0:
248,184,81419,1,0,0:0:0:0:
248,192,81532,1,0,0:0:0:0:
248,192,81644,1,8,0:0:0:0:
248,192,81868,1,0,0:0:0:0:
296,192,82092,1,8,0:0:0:0:
296,192,82205,1,8,0:0:0:0:
296,200,82317,1,0,0:0:0:0:
304,200,82429,1,0,0:0:0:0:
304,200,82541,1,8,0:0:0:0:
304,200,82653,1,0,0:0:0:0:
304,200,82766,1,8,0:0:0:0:
288,144,82990,1,4,0:0:0:0:
272,176,83439,1,12,0:0:0:0:
272,176,83887,1,8,0:0:0:0:
272,176,84112,1,0,0:0:0:0:
272,176,84224,1,0,0:0:0:0:
272,176,84336,1,8,0:0:0:0:
272,176,84448,1,0,0:0:0:0:
272,176,84560,1,0,0:0:0:0:
264,168,84672,1,0,0:0:0:0:
256,216,84785,1,8,0:0:0:0:
280,208,85009,1,0,0:0:0:0:
280,208,85233,1,8,0:0:0:0:
280,208,85346,1,8,0:0:0:0:
280,208,85458,1,0,0:0:0:0:
280,208,85682,1,8,0:0:0:0:
216,176,85906,1,0,0:0:0:0:
216,176,86019,1,0,0:0:0:0:
216,176,86131,1,8,0:0:0:0:
216,176,86355,1,0,0:0:0:0:
272,176,86579,1,12,0:0:0:0:
272,176,86804,1,0,0:0:0:0:
272,176,87028,1,12,0:0:0:0:
272,200,87477,1,8,0:0:0:0:
272,192,87701,1,0,0:0:0:0:
272,192,87813,1,0,0:0:0:0:
272,192,87926,1,8,0:0:0:0:
240,160,88150,1,0,0:0:0:0:
264,184,88374,1,8,0:0:0:0:
296,176,88486,1,8,0:0:0:0:
264,184,88599,1,0,0:0:0:0:
296,176,88823,1,8,0:0:0:0:
296,176,88935,1,0,0:0:0:0:
296,176,89047,1,0,0:0:0:0:
240,160,89159,1,0,0:0:0:0:
304,176,89272,1,8,0:0:0:0:
304,176,89496,1,8,0:0:0:0:
304,176,89720,1,8,0:0:0:0:
336,200,89833,1,8,0:0:0:0:
304,176,89945,1,0,0:0:0:0:
328,256,90169,1,8,0:0:0:0:
304,176,90618,1,8,0:0:0:0:
272,176,90842,1,0,0:0:0:0:
288,168,91066,1,8,0:0:0:0:
288,168,91179,1,8,0:0:0:0:
288,168,91291,1,0,0:0:0:0:
240,160,91515,1,8,0:0:0:0:
240,152,91739,1,0,0:0:0:0:
232,168,91964,1,8,0:0:0:0:
232,168,92076,1,0,0:0:0:0:
232,168,92188,1,0,0:0:0:0:
232,168,92300,1,0,0:0:0:0:
232,168,92413,1,8,0:0:0:0:
232,136,92525,1,8,0:0:0:0:
240,176,92637,1,0,0:0:0:0:
232,176,92861,1,8,0:0:0:0:
232,176,93086,1,0,0:0:0:0:
232,176,93310,1,8,0:0:0:0:
232,176,93422,1,8,0:0:0:0:
240,176,93534,1,0,0:0:0:0:
240,176,93646,1,0,0:0:0:0:
240,176,93759,1,8,0:0:0:0:
240,176,93983,1,0,0:0:0:0:
240,176,94207,1,8,0:0:0:0:
240,176,94320,1,0,0:0:0:0:
240,176,94432,1,0,0:0:0:0:
240,176,94544,1,0,0:0:0:0:
240,176,94656,1,8,0:0:0:0:
200,160,94880,1,0,0:0:0:0:
240,160,95105,1,8,0:0:0:0:
240,160,95180,1,8,0:0:0:0:
240,160,95254,1,8,0:0:0:0:
240,160,95329,1,0,0:0:0:0:
232,192,95553,1,12,0:0:0:0:
280,176,95778,1,0,0:0:0:0:
272,144,95890,1,0,0:0:0:0:
280,176,96002,1,8,0:0:0:0:
240,152,96226,1,0,0:0:0:0:
240,152,96451,1,8,0:0:0:0:
240,152,96563,1,0,0:0:0:0:
240,152,96675,1,8,0:0:0:0:
240,152,96900,1,8,0:0:0:0:
240,152,97124,1,8,0:0:0:0:
256,160,97348,1,4,0:0:0:0:
256,160,97573,1,0,0:0:0:0:
256,168,97797,1,12,0:0:0:0:
208,152,98021,1,0,0:0:0:0:
208,160,98470,1,8,0:0:0:0:
208,192,98582,1,0,0:0:0:0:
224,152,98694,1,8,0:0:0:0:
224,152,98919,1,0,0:0:0:0:
216,160,99143,1,12,0:0:0:0:
216,200,99367,1,0,0:0:0:0:
200,152,99592,1,12,0:0:0:0:
176,160,99816,1,12,0:0:0:0:
184,176,100265,1,0,0:0:0:0:
168,184,100489,1,8,0:0:0:0:
168,184,100601,1,8,0:0:0:0:
168,184,100713,1,0,0:0:0:0:
184,152,100938,1,12,0:0:0:0:
200,160,101162,1,0,0:0:0:0:
200,160,101387,1,8,0:0:0:0:
168,168,101835,1,4,0:0:0:0:
216,160,102060,1,4,0:0:0:0:
216,160,102284,1,4,0:0:0:0:
232,160,102508,1,12,0:0:0:0:
256,192,102733,12,0,106322,0:0:0:0:
