osu file format v14

[General]
AudioFilename: Toni Ten - Tu ets el meu cor encantat.mp3
AudioLeadIn: 0
PreviewTime: 68416
Countdown: 0
SampleSet: Normal
StackLeniency: 0.7
Mode: 1
LetterboxInBreaks: 0
WidescreenStoryboard: 0

[Editor]
DistanceSpacing: 1.2
BeatDivisor: 4
GridSize: 8
TimelineZoom: 1.9

[Metadata]
Title:Tu ets el meu cor encantat
TitleUnicode:Tu ets el meu cor encantat
Artist:Toni Ten
ArtistUnicode:Toni Ten
Creator:Hanjamon
Version:Futsuu
Source:Dragon Ball GT
Tags:Catalán Català Gero Manuxz Opening 1 TV Size
BeatmapID:538114
BeatmapSetID:231024

[Difficulty]
HPDrainRate:4
CircleSize:5
OverallDifficulty:4
ApproachRate:5
SliderMultiplier:1.4
SliderTickRate:1

[Events]
//Background and Video events
0,0,"BG.jpg",0,0
//Break Periods
//Storyboard Layer 0 (Background)
//Storyboard Layer 1 (Fail)
//Storyboard Layer 2 (Pass)
//Storyboard Layer 3 (Foreground)
//Storyboard Sound Samples

[TimingPoints]
-1300,448.698773556686,4,1,0,70,1,0
4084,-100,4,1,0,70,0,1
22032,-100,4,1,0,70,0,0
25623,448.095593726662,4,1,0,70,1,0
68632,448.698773556686,4,1,0,70,1,0
68632,-100,4,1,0,70,0,1
102508,-100,4,1,0,70,0,0

[Colours]
Combo1 : 214,80,65
Combo2 : 45,175,225
Combo3 : 202,173,119

[HitObjects]
264,264,494,5,12,0:0:0:0:
264,256,1392,1,8,0:0:0:0:
280,248,2289,1,8,0:0:0:0:
280,248,2513,1,8,0:0:0:0:
280,248,2738,1,8,0:0:0:0:
304,176,3186,1,8,0:0:0:0:
280,248,4084,1,4,0:0:0:0:
256,216,4533,1,12,0:0:0:0:
256,216,4981,1,8,0:0:0:0:
272,224,5206,1,8,0:0:0:0:
272,224,5430,1,0,0:0:0:0:
240,192,5879,1,8,0:0:0:0:
264,168,6327,1,8,0:0:0:0:
256,168,6776,1,0,0:0:0:0:
256,168,7225,1,0,0:0:0:0:
248,192,7673,1,12,0:0:0:0:
248,184,8122,1,12,0:0:0:0:
256,160,9020,1,0,0:0:0:0:
272,160,9244,1,0,0:0:0:0:
256,160,9468,1,8,0:0:0:0:
288,160,9917,1,8,0:0:0:0:
272,160,10366,1,0,0:0:0:0:
272,160,10814,1,0,0:0:0:0:
272,136,11263,1,12,0:0:0:0:
280,168,11712,1,12,0:0:0:0:
200,160,12160,1,8,0:0:0:0:
240,160,12609,1,8,0:0:0:0:
232,168,13058,1,0,0:0:0:0:
232,168,13507,1,8,0:0:0:0:
240,176,13731,1,0,0:0:0:0:
232,176,14404,1,8,0:0:0:0:
240,176,14628,1,0,0:0:0:0:
240,176,14853,1,0,0:0:0:0:
240,176,15301,1,8,0:0:0:0:
240,176,15750,1,8,0:0:0:0:
240,160,16199,1,0,0:0:0:0:
232,192,16647,1,12,0:0:0:0:
240,152,17545,1,0,0:0:0:0:
240,152,17769,1,0,0:0:0:0:
240,152,17994,1,8,0:0:0:0:
256,160,18442,1,4,0:0:0:0:
256,168,18891,1,12,0:0:0:0:
208,160,19564,1,8,0:0:0:0:
224,152,19788,1,8,0:0:0:0:
216,160,20237,1,12,0:0:0:0:
200,152,20686,1,12,0:0:0:0:
184,176,21359,1,0,0:0:0:0:
168,184,21583,1,8,0:0:0:0:
216,152,22032,1,12,0:0:0:0:
248,152,24724,1,0,0:0:0:0:
264,184,25173,1,8,0:0:0:0:
256,176,25397,1,8,0:0:0:0:
256,176,25621,1,4,0:0:0:0:
288,160,26519,1,8,0:0:0:0:
264,144,26967,1,8,0:0:0:0:
264,136,27415,1,8,0:0:0:0:
288,160,27863,1,8,0:0:0:0:
288,160,28087,1,0,0:0:0:0:
296,160,28759,1,8,0:0:0:0:
264,152,29207,1,0,0:0:0:0:
240,152,30103,1,0,0:0:0:0:
240,152,30328,1,8,0:0:0:0:
280,152,30552,1,8,0:0:0:0:
280,152,31000,1,8,0:0:0:0:
256,160,31448,1,8,0:0:0:0:
256,160,31672,1,0,0:0:0:0:
256,152,32344,1,8,0:0:0:0:
264,160,32792,1,0,0:0:0:0:
288,160,33688,1,8,0:0:0:0:
288,152,33912,1,0,0:0:0:0:
288,160,34136,1,0,0:0:0:0:
296,152,34584,1,8,0:0:0:0:
296,152,35033,1,8,0:0:0:0:
264,144,35257,1,0,0:0:0:0:
264,144,35929,1,8,0:0:0:0:
248,144,36377,1,8,0:0:0:0:
304,160,36825,1,8,0:0:0:0:
272,176,37049,1,0,0:0:0:0:
304,160,37497,1,0,0:0:0:0:
272,176,37721,1,0,0:0:0:0:
248,160,37945,1,8,0:0:0:0:
264,152,39065,1,0,0:0:0:0:
272,160,39289,1,0,0:0:0:0:
272,168,39513,1,8,0:0:0:0:
256,168,39962,1,12,0:0:0:0:
296,184,40634,1,0,0:0:0:0:
296,184,40858,1,8,0:0:0:0:
256,160,41306,1,0,0:0:0:0:
264,168,41754,1,8,0:0:0:0:
264,168,42202,1,8,0:0:0:0:
296,168,42650,1,0,0:0:0:0:
240,168,42874,1,0,0:0:0:0:
192,136,43098,1,8,0:0:0:0:
240,160,43546,1,12,0:0:0:0:
200,176,44443,1,0,0:0:0:0:
248,144,45115,1,0,0:0:0:0:
248,152,45339,1,8,0:0:0:0:
248,176,45787,1,8,0:0:0:0:
208,168,46235,1,0,0:0:0:0:
272,144,46683,1,8,0:0:0:0:
208,168,46907,1,0,0:0:0:0:
208,160,47131,1,0,0:0:0:0:
208,160,47579,1,8,0:0:0:0:
288,136,48923,1,0,0:0:0:0:
288,152,49372,1,0,0:0:0:0:
312,168,49596,1,8,0:0:0:0:
336,184,50044,1,8,0:0:0:0:
312,192,50716,1,8,0:0:0:0:
296,184,51164,1,8,0:0:0:0:
304,184,51388,1,0,0:0:0:0:
304,184,52060,1,0,0:0:0:0:
280,152,52284,1,0,0:0:0:0:
272,152,53404,1,0,0:0:0:0:
272,152,53853,1,8,0:0:0:0:
272,152,54301,1,8,0:0:0:0:
288,176,54749,1,12,0:0:0:0:
248,152,55197,1,0,0:0:0:0:
296,192,55645,1,12,0:0:0:0:
240,160,56541,1,8,0:0:0:0:
208,152,56989,1,0,0:0:0:0:
200,152,57437,1,8,0:0:0:0:
160,152,57661,1,0,0:0:0:0:
256,168,57885,1,8,0:0:0:0:
288,176,58333,1,12,0:0:0:0:
304,136,58782,1,0,0:0:0:0:
280,152,59230,1,12,0:0:0:0:
272,136,60126,1,8,0:0:0:0:
240,160,60574,1,0,0:0:0:0:
280,144,61470,1,4,0:0:0:0:
256,168,61918,1,8,0:0:0:0:
264,184,62142,1,8,0:0:0:0:
272,192,63263,1,0,0:0:0:0:
208,152,63711,1,8,0:0:0:0:
208,152,64159,1,0,0:0:0:0:
208,152,64607,1,8,0:0:0:0:
136,152,65055,1,4,0:0:0:0:
208,144,65951,1,0,0:0:0:0:
216,144,66399,1,8,0:0:0:0:
264,208,66847,1,8,0:0:0:0:
264,208,67071,1,8,0:0:0:0:
264,208,67295,1,8,0:0:0:0:
208,152,67743,1,8,0:0:0:0:
272,192,68632,1,12,0:0:0:0:
256,216,69080,1,12,0:0:0:0:
256,216,69529,1,8,0:0:0:0:
272,224,69753,1,8,0:0:0:0:
272,224,69978,1,0,0:0:0:0:
240,192,70426,1,8,0:0:0:0:
264,168,70875,1,8,0:0:0:0:
256,168,71324,1,0,0:0:0:0:
256,168,71772,1,0,0:0:0:0:
248,192,72221,1,12,0:0:0:0:
248,184,72670,1,12,0:0:0:0:
256,160,73567,1,0,0:0:0:0:
256,160,73792,1,0,0:0:0:0:
176,144,74016,1,8,0:0:0:0:
288,160,74465,1,8,0:0:0:0:
272,160,74913,1,0,0:0:0:0:
272,160,75362,1,0,0:0:0:0:
272,136,75811,1,12,0:0:0:0:
280,168,76259,1,12,0:0:0:0:
264,200,76708,1,0,0:0:0:0:
264,200,76932,1,0,0:0:0:0:
272,208,77157,1,8,0:0:0:0:
280,200,77605,1,8,0:0:0:0:
272,176,78054,1,8,0:0:0:0:
264,168,78279,1,0,0:0:0:0:
272,184,78952,1,8,0:0:0:0:
272,184,79176,1,8,0:0:0:0:
296,176,79400,1,8,0:0:0:0:
304,184,79849,1,8,0:0:0:0:
272,176,80298,1,0,0:0:0:0:
248,192,80746,1,0,0:0:0:0:
248,184,81195,1,8,0:0:0:0:
248,184,81419,1,8,0:0:0:0:
248,192,81644,1,8,0:0:0:0:
296,192,82092,1,8,0:0:0:0:
288,144,82990,1,12,0:0:0:0:
272,176,83439,1,12,0:0:0:0:
272,176,83887,1,8,0:0:0:0:
272,176,84112,1,0,0:0:0:0:
272,176,84336,1,8,0:0:0:0:
256,216,84785,1,8,0:0:0:0:
280,208,85233,1,8,0:0:0:0:
280,208,85682,1,0,0:0:0:0:
216,176,85906,1,0,0:0:0:0:
216,176,86131,1,0,0:0:0:0:
272,176,86579,1,12,0:0:0:0:
272,176,87028,1,12,0:0:0:0:
272,192,87926,1,0,0:0:0:0:
288,152,88150,1,0,0:0:0:0:
264,184,88374,1,8,0:0:0:0:
296,176,88823,1,8,0:0:0:0:
304,176,89272,1,0,0:0:0:0:
304,176,89720,1,0,0:0:0:0:
328,256,90169,1,8,0:0:0:0:
288,168,91066,1,8,0:0:0:0:
296,168,91291,1,0,0:0:0:0:
240,160,91515,1,8,0:0:0:0:
232,168,91964,1,8,0:0:0:0:
232,168,92413,1,8,0:0:0:0:
240,176,92637,1,0,0:0:0:0:
232,176,93310,1,8,0:0:0:0:
240,176,93534,1,0,0:0:0:0:
240,176,93759,1,0,0:0:0:0:
240,176,94207,1,8,0:0:0:0:
240,176,94656,1,8,0:0:0:0:
240,160,95105,1,0,0:0:0:0:
240,160,95329,1,0,0:0:0:0:
232,192,95553,1,12,0:0:0:0:
240,152,96451,1,0,0:0:0:0:
240,152,96675,1,0,0:0:0:0:
240,152,96900,1,8,0:0:0:0:
256,160,97348,1,4,0:0:0:0:
256,168,97797,1,12,0:0:0:0:
208,160,98470,1,8,0:0:0:0:
224,152,98694,1,8,0:0:0:0:
216,160,99143,1,12,0:0:0:0:
200,152,99592,1,12,0:0:0:0:
184,176,100265,5,0,0:0:0:0:
168,184,100489,1,8,0:0:0:0:
216,152,100938,1,12,0:0:0:0:
168,168,101835,1,4,0:0:0:0:
216,160,102284,1,4,0:0:0:0:
232,160,102508,1,12,0:0:0:0:
256,192,102733,12,0,106322,0:0:0:0:
