osu file format v10

[General]
AudioFilename: 95366.mp3
AudioLeadIn: 1500
PreviewTime: 53353
Countdown: 1
SampleSet: Soft
StackLeniency: 0.7
Mode: 0
LetterboxInBreaks: 1

[Editor]
DistanceSpacing: 1.3
BeatDivisor: 4
GridSize: 4

[Metadata]
Title:Un-Break My Heart
TitleUnicode:Un-Break My Heart
Artist:Toni Braxton
ArtistUnicode:Toni Braxton
Creator:-Bakari-
Version:Un-Break
Source:
Tags:The World's Greatest Love Songs
BeatmapID:185942
BeatmapSetID:62754

[Difficulty]
HPDrainRate:3
CircleSize:3
OverallDifficulty:3
ApproachRate:4
SliderMultiplier:1.7
SliderTickRate:2

[Events]
//Background and Video events
0,0,"raining.jpg"
//Break Periods
//Storyboard Layer 0 (Background)
//Storyboard Layer 1 (Fail)
//Storyboard Layer 2 (Pass)
//Storyboard Layer 3 (Foreground)
//Storyboard Sound Samples
//Background Colour Transformations
3,100,163,162,255

[TimingPoints]
990,1090.90909090909,4,2,1,40,1,0
20626,-100,4,2,1,20,0,0
21717,-100,4,2,1,40,0,0
55535,-100,4,2,1,45,0,1
72989,-100,4,2,1,35,0,0
74626,-100,4,2,1,35,0,0
90444,-100,4,2,1,35,0,0
110080,-100,4,2,1,45,0,0
125353,-100,4,2,1,40,0,1
142808,-100,4,2,1,40,0,0
158080,-100,4,2,1,15,0,0

[Colours]
Combo1 : 118,118,243
Combo2 : 152,224,252
Combo3 : 211,189,230

[HitObjects]
144,332,990,2,0,B|100:248|136:160,1,170,2|8,0:0|0:0,0:0:0
116,60,2626,1,0,0:0:0
217,103,3171,6,0,B|265:107|313:83,1,85,2|0,0:0|0:0,0:0:0
408,80,4262,1,8,0:0:0
476,168,4808,1,0,0:0:0
436,272,5353,2,0,B|420:316|376:336,1,85,0|0,0:0|0:0,0:0:0
328,236,6444,6,0,B|220:220,1,85,8|0,0:0|0:0,0:0:0
176,312,7535,2,0,B|268:328,2,85,0|0|8,0:0|0:0|0:0,0:0:0
96,236,9171,1,0,0:0:0
96,124,9717,2,0,B|80:84|96:36,1,85,0|0,0:0|0:0,0:0:0
196,80,10808,5,8,0:0:0
304,92,11353,2,0,B|300:136|268:176|224:196|164:184,1,170,0|0,0:0|0:0,0:0:0
96,124,12989,1,8,0:0:0
16,200,13535,1,0,0:0:0
96,272,14080,6,0,B|84:320|112:376,1,85,0|0,0:0|0:0,0:0:0
200,300,15171,1,8,0:0:0
300,348,15717,2,0,B|340:264|268:204|192:136|284:28,1,340,0|0,0:0|0:0,0:0:0
356,116,18444,6,0,B|392:80|392:32,1,85,0|0,0:0|0:0,0:0:0
504,32,19535,2,0,B|516:80|496:160|436:208,1,170,8|0,0:0|0:0,0:0:0
264,300,21717,6,0,B|292:400,2,85,8|0|0,0:0|0:0|0:0,0:0:0
164,256,23353,1,0,0:0:0
56,276,23899,2,0,B|48:224|76:192,1,85,8|0,0:0|0:0,0:0:0
168,140,24989,2,0,B|220:148|248:172,1,85,0|0,0:0|0:0,0:0:0
268,280,26080,5,8,0:0:0
376,296,26626,1,0,0:0:0
364,188,27171,2,0,B|420:116|368:12,2,170,0|8|0,0:0|0:0|0:0,0:0:0
148,188,30444,6,0,B|92:116|144:12,2,170,8|0|8,0:0|0:0|0:0,0:0:0
112,292,33171,1,0,0:0:0
212,340,33717,2,0,B|256:348|296:340,1,85,0|0,0:0|0:0,0:0:0
312,232,34808,1,8,0:0:0
200,232,35353,1,0,0:0:0
120,156,35899,6,0,B|160:136|200:136|200:136|184:84|196:32,1,170,0|8,0:0|0:0,0:0:0
296,92,37535,1,0,0:0:0
380,20,38080,6,0,B|428:68|400:140|400:140|364:216|420:276,1,255,0|0,0:0|0:0,0:0:0
496,192,40262,2,0,B|540:96|500:16,1,170,0|8,0:0|0:0,0:0:0
308,108,42444,6,0,B|292:60|328:16,2,85,0|0|8,0:0|0:0|0:0,0:0:0
248,200,44080,2,0,B|308:244|372:216|412:180|424:140|416:92,2,255,0|8|0,0:0|0:0|0:0,0:0:0
152,144,47899,6,0,B|52:124,2,85,8|0|0,0:0|0:0|0:0,0:0:0
144,256,49535,1,0,0:0:0
244,300,50080,1,8,0:0:0
344,256,50626,1,0,0:0:0
256,192,51171,12,0,53353,0:0:0
168,312,54444,6,0,B|160:224|76:172,2,170,8|4|8,0:0|0:0|0:0,0:0:0
276,332,57171,1,0,0:0:0
384,304,57717,2,0,B|432:244|404:184|404:184|376:116|416:64,1,255,0|0,0:0|0:0,0:0:0
304,64,59899,2,0,B|280:96|276:180|324:248,1,170,0|8,0:0|0:0,0:0:0
120,336,62080,6,0,B|84:304|80:252|80:252|40:260|8:232,1,170,0|8,0:0|0:0,0:0:0
68,136,63717,1,0,0:0:0
164,84,64262,6,0,B|248:56,1,85,2|0,0:0|0:0,0:0:0
340,112,65353,2,0,B|256:144,1,85,8|0,0:0|0:0,0:0:0
184,220,66444,2,0,B|148:268|168:360|220:376,1,170,0|8,0:0|0:0,0:0:0
280,284,68080,5,0,0:0:0
388,296,68626,1,0,0:0:0
440,196,69171,2,0,B|484:148|452:68|412:44,1,170,0|0,0:0|0:0,0:0:0
348,136,70808,6,0,B|244:104,2,85,0|0|8,0:0|0:0|0:0,0:0:0
388,240,72444,1,0,0:0:0
492,276,72990,6,0,B|480:316|448:356|380:372|320:348|292:292,1,255,0|0,0:0|0:0,0:0:0
240,208,75171,6,0,B|223:166|167:138|99:146|55:170|43:234,2,255,0|0|8,0:0|0:0|0:0,0:0:0
348,228,78990,1,0,0:0:0
424,148,79535,2,0,B|456:60,2,85,0|0|8,0:0|0:0|0:0,0:0:0
348,228,81171,1,0,0:0:0
240,204,81717,6,0,B|229:209|304:178|344:112|336:52|264:12|212:60|212:60|160:0|76:60|100:140|168:184,1,510,4|8,0:0|0:0,0:0:0
116,276,85535,6,0,B|32:304,2,85,0|0|0,0:0|0:0|0:0,0:0:0
224,304,87171,1,8,0:0:0
332,320,87717,1,0,0:0:0
440,292,88262,2,0,B|488:216|456:124,1,170,0|8,0:0|0:0,0:0:0
408,28,89899,1,0,0:0:0
340,116,90444,5,4,0:0:0
172,248,91535,1,8,0:0:0
256,320,92080,1,0,0:0:0
340,248,92626,2,0,B|404:188|504:208,2,170,0|8|0,0:0|0:0|0:0,0:0:0
196,84,95899,6,0,B|132:24|32:44,2,170,8|0|8,0:0|0:0|0:0,0:0:0
236,188,98626,1,0,0:0:0
296,280,99171,2,0,B|328:312|376:316,1,85
376,204,100262,5,8,0:0:0
460,132,100808,1,0,0:0:0
356,96,101353,2,0,B|264:60,2,85,0|0|8,0:0|0:0|0:0,0:0:0
380,200,102990,1,0,0:0:0
420,304,103535,6,0,B|516:344,2,85,0|0|8,0:0|0:0|0:0,0:0:0
320,252,105171,2,0,B|288:228|236:232|204:268|204:268|172:304|120:308|88:284,1,255,0|8,0:0|0:0,0:0:0
136,184,107353,1,0,0:0:0
232,132,107899,2,0,B|204:68|128:64,2,127.5,4|0|0,0:0|0:0|0:0,0:0:0
244,240,110080,6,0,B|320:208|412:220,1,170,0|8,0:0|0:0,0:0:0
244,88,112262,2,0,B|168:56|76:68,1,170,0|8,0:0|0:0,0:0:0
68,180,113899,2,0,B|140:152|220:172|256:236|256:236|312:304|408:300|460:252,1,425,0|0,0:0|0:0,0:0:0
476,156,117171,1,0,0:0:0
455,44,117717,6,0,B|432:44|384:68|360:112|364:168,1,170,8|0,0:0|0:0,0:0:0
476,156,119353,1,0,0:0:0
420,252,119899,2,0,B|436:292|424:340,2,85,8|0|0,0:0|0:0|0:0,0:0:0
320,300,121535,2,0,B|224:304|156:352,1,170,0|0,0:0|0:0,0:0:0
52,332,123171,6,0,B|56:284|100:256,1,85,0|0,0:0|0:0,0:0:0
168,180,124262,2,0,B|104:88,1,85,8|0,0:0|0:0,0:0:0
216,56,125353,5,4,0:0:0
288,140,125899,1,0,0:0:0
396,168,126444,1,8,0:0:0
500,132,126990,1,0,0:0:0
480,240,127535,6,0,B|504:276|504:320,2,85,0|0|8,0:0|0:0|0:0,0:0:0
396,168,129171,1,0,0:0:0
300,112,129717,2,0,B|252:108|220:68,2,85,0|0|8,0:0|0:0|0:0,0:0:0
288,224,131353,1,0,0:0:0
372,296,131899,6,0,B|464:312,2,85,0|0|8,0:0|0:0|0:0,0:0:0
268,332,133535,1,0,0:0:0
288,224,134080,2,0,B|304:180|280:128,1,85,2|0,0:0|0:0,0:0:0
192,76,135171,1,8,0:0:0
184,188,135717,1,0,0:0:0
284,140,136262,6,0,B|368:120,2,85,0|0|8,0:0|0:0|0:0,0:0:0
276,252,137899,1,0,0:0:0
354,330,138444,1,0,0:0:0
432,251,138990,1,0,0:0:0
500,164,139535,2,0,B|496:120|460:88,1,85,8|0,0:0|0:0,0:0:0
360,48,140626,6,0,B|272:28,1,85,0|0,0:0|0:0,0:0:0
196,104,141717,2,0,B|280:128,1,85,8|0,0:0|0:0,0:0:0
320,228,142808,1,4,0:0:0
384,316,143353,6,0,B|468:344,2,85,0|8|0,0:0|0:0|0:0,0:0:0
400,208,144990,1,0,0:0:0
336,116,145535,1,0,0:0:0
228,124,146080,2,0,B|184:136|144:108,2,85,8|0|0,0:0|0:0|0:0,0:0:0
292,216,147717,2,0,B|348:244|424:208|432:160,1,170,0|0,0:0|0:0,0:0:0
424,52,149353,5,0,0:0:0
332,112,149899,1,0,0:0:0
344,220,150444,1,8,0:0:0
240,256,150990,1,0,0:0:0
152,192,151535,6,0,B|141:197|216:166|256:100|248:40|176:0|124:48|124:48|72:-12|-12:48|12:128|80:172,1,510,4|8,0:0|0:0,0:0:0
256,192,155899,12,4,158080,0:0:0
