osu file format v14

[General]
AudioFilename: Solatorobo Red the Hunter - And then, to CODA.mp3
AudioLeadIn: 0
PreviewTime: 26257
Countdown: 0
SampleSet: None
StackLeniency: 0.7
Mode: 0
LetterboxInBreaks: 1
WidescreenStoryboard: 1

[Editor]
DistanceSpacing: 1.5
BeatDivisor: 4
GridSize: 4
TimelineZoom: 1.9

[Metadata]
Title:And then, to CODA
TitleUnicode:And then, to CODA
Artist:Tomoyo Mitani
ArtistUnicode:三谷 朋世
Creator:Boldenouy
Version:Hard
Source:Solatorobo: Red the Hunter
Tags:sorekara coda e chiyako fukuda ost
BeatmapID:833929
BeatmapSetID:331204

[Difficulty]
HPDrainRate:5
CircleSize:4
OverallDifficulty:6
ApproachRate:8
SliderMultiplier:1.4
SliderTickRate:1

[Events]
//Background and Video events
Video,0,"Solatorobo Red the Hunter - Official Opening Animation.avi"
0,0,"solatorobo.jpg",0,0
//Break Periods
//Storyboard Layer 0 (Background)
//Storyboard Layer 1 (Fail)
//Storyboard Layer 2 (Pass)
//Storyboard Layer 3 (Foreground)
//Storyboard Sound Samples

[TimingPoints]
117,333.333333333333,3,2,0,55,1,0
8114,-133.333333333333,3,2,0,20,0,0
16116,-133.333333333333,3,2,0,30,0,0
20116,-100,3,2,0,40,0,0
26257,333.333333333333,3,3,0,60,1,1
26257,-80,3,3,0,60,0,1
30173,-80,3,3,0,60,0,0
30256,-80,3,3,0,60,0,1
33923,-80,3,3,0,60,0,0
34256,-80,3,3,0,60,0,1
42423,-200,3,2,0,35,0,0
43256,-200,3,2,0,5,0,0
43423,-200,3,2,0,35,0,0
44256,-200,3,2,0,5,0,0
44423,-200,3,2,0,35,0,0
45423,-200,3,2,0,5,0,0
45590,-200,3,2,0,35,0,0
46590,-200,3,2,0,5,0,0
46756,-200,3,2,0,35,0,0
47756,-200,3,2,0,5,0,0
47923,-200,3,2,0,35,0,0
51309,375,3,2,0,25,1,0

[Colours]
Combo1 : 235,235,235
Combo2 : 190,103,16
Combo3 : 208,4,4
Combo4 : 253,123,234

[HitObjects]
179,248,117,6,0,P|186:202|205:171,1,70,4|0,0:0|0:0,0:0:0:0:
232,105,450,1,0,3:0:0:0:
280,173,616,1,0,3:0:0:0:
196,181,783,2,0,P|159:149|148:120,1,70,0|0,3:0|0:0,0:0:0:0:
195,257,1116,5,2,0:0:0:0:
195,257,1450,2,0,P|233:247|269:202,1,70,0|0,3:0|0:0,0:0:0:0:
247,136,1783,2,0,P|209:146|173:191,1,70,0|0,3:0|0:0,0:0:0:0:
255,227,2116,6,0,B|287:266|287:266|320:254|364:313,1,140,0|0,3:0|0:0,0:0:0:0:
414,368,2616,1,0,0:0:0:0:
434,285,2783,2,0,L|489:284,2,35,2|0|0,0:0|0:0|0:0,0:0:0:0:
377,221,3116,5,10,0:0:0:0:
228,68,3450,1,2,0:0:0:0:
153,266,3783,1,2,0:0:0:0:
73,71,4116,6,0,L|101:135,1,70,2|0,3:2|0:0,0:0:0:0:
153,266,4450,1,0,3:0:0:0:
219,327,4616,1,0,3:0:0:0:
299,283,4783,1,0,3:0:0:0:
295,200,4950,1,0,0:0:0:0:
295,200,5033,1,0,0:0:0:0:
295,200,5116,6,0,P|327:173|343:139,1,70,2|0,0:0|0:0,0:0:0:0:
253,118,5450,2,0,P|225:139|207:169,1,70,0|0,3:0|0:0,0:0:0:0:
340,148,5783,2,0,P|372:121|388:87,1,70,2|0,3:2|0:0,0:0:0:0:
404,21,6116,1,4,3:2:0:0:
256,188,7116,5,2,0:0:0:0:
256,188,7450,1,2,3:2:0:0:
256,188,8116,5,0,3:0:0:0:
311,132,8283,1,0,0:0:0:0:
332,208,8450,1,0,0:0:0:0:
256,196,8616,2,0,P|254:225|283:259,2,52.5000020027161
244,117,9116,6,0,P|220:125|197:146,1,52.5000020027161,0|0,3:0|0:0,0:0:0:0:
172,219,9450,1,0,0:0:0:0:
172,219,9616,1,0,0:0:0:0:
228,275,9783,2,0,P|254:282|291:275,1,52.5000020027161
260,202,10116,6,0,L|267:150,1,52.5000020027161,0|0,3:0|0:0,0:0:0:0:
346,130,10450,1,0,0:0:0:0:
346,130,10616,1,0,0:0:0:0:
421,108,10783,2,0,P|419:133|412:162,1,52.5000020027161
392,236,11116,5,0,3:0:0:0:
328,282,11283,1,0,0:0:0:0:
280,219,11450,1,0,0:0:0:0:
203,197,11616,1,0,0:0:0:0:
221,120,11783,1,0,0:0:0:0:
298,142,11949,1,0,3:0:0:0:
280,219,12116,6,0,P|255:253|232:262,1,52.5000020027161,2|0,3:2|0:0,0:0:0:0:
170,236,12450,2,0,P|195:202|218:193,1,52.5000020027161
255,145,12783,2,0,P|237:127|213:118,1,52.5000020027161,2|0,0:0|3:0,0:0:0:0:
202,196,13116,6,0,P|221:214|246:223,1,52.5000020027161,0|0,3:0|0:0,0:0:0:0:
324,218,13450,1,0,0:0:0:0:
410,86,13783,1,0,0:0:0:0:
324,218,14116,5,0,3:0:0:0:
192,130,14450,1,0,0:0:0:0:
130,81,14616,1,0,0:0:0:0:
125,159,14783,2,0,P|143:184|172:198,1,52.5000020027161,0|0,0:0|3:0,0:0:0:0:
253,242,15116,5,0,3:0:0:0:
236,164,15283,1,0,0:0:0:0:
161,194,15450,1,0,0:0:0:0:
181,269,15616,1,0,0:0:0:0:
238,322,15783,2,0,P|205:341|172:344,1,52.5000020027161
112,335,16116,5,2,3:2:0:0:
117,125,16450,1,0,0:0:0:0:
253,284,16783,1,0,0:0:0:0:
117,125,17116,1,0,0:0:0:0:
331,128,17450,1,0,0:0:0:0:
331,128,17950,5,0,0:0:0:0:
282,189,18116,2,0,L|216:160,1,52.5000020027161,0|0,3:0|0:0,0:0:0:0:
157,144,18450,1,0,0:0:0:0:
163,222,18616,1,0,0:0:0:0:
173,300,18783,1,0,0:0:0:0:
331,284,19116,6,0,P|363:279|393:249,1,52.5000020027161,0|0,3:0|0:0,0:0:0:0:
387,189,19450,2,0,P|353:195|323:218,1,52.5000020027161
259,195,19783,1,0,0:0:0:0:
211,131,19950,1,0,0:0:0:0:
65,160,20116,5,0,3:0:0:0:
116,236,20283,1,0,0:0:0:0:
207,235,20450,2,0,P|246:217|261:176,1,70,2|0,0:0|0:0,0:0:0:0:
329,148,20783,2,0,P|348:119|380:107,1,70
398,189,21116,6,0,P|378:217|346:229,1,70,2|0,0:0|0:0,0:0:0:0:
193,139,21450,2,0,P|214:108|245:95,1,70
271,180,21783,1,0,0:0:0:0:
345,229,21950,1,0,0:0:0:0:
259,289,22116,6,0,B|217:200|148:257|119:217|119:215|119:215|145:197|122:173,1,210,2|0,3:2|0:0,0:0:0:0:
110,74,22783,1,0,0:0:0:0:
193,139,22950,1,0,0:0:0:0:
236,44,23116,1,2,0:0:0:0:
444,75,23450,1,2,0:0:0:0:
273,196,23783,2,0,P|201:208|146:250,1,140,6|0,0:0|0:0,0:0:0:0:
273,196,24450,6,0,P|337:190|366:158,1,105
415,114,24783,2,0,B|466:140|470:207,1,105
409,235,25116,2,0,B|399:250|375:261|375:261|377:307|342:326,1,105
305,267,25450,2,0,B|266:269|229:286|229:286|243:336|292:353,1,175,0|2,0:0|0:0,0:0:0:0:
118,191,26257,6,0,B|146:144|115:113|115:113|194:140|284:80,1,262.5,4|0,0:2|0:0,0:0:0:0:
410,106,26923,2,0,P|396:151|360:219,1,87.5,4|0,0:0|0:0,0:0:0:0:
333,282,27257,2,0,B|376:315|439:314|439:314|346:344,1,175,4|0,0:2|0:0,0:0:0:0:
333,282,27923,2,0,P|295:278|242:239,1,87.5,4|0,0:0|0:0,0:0:0:0:
149,161,28256,6,0,P|169:187|169:243,1,87.5,4|0,0:2|0:0,0:0:0:0:
106,301,28590,1,0,0:0:0:0:
81,217,28756,1,0,0:0:0:0:
149,161,28923,1,0,0:0:0:0:
185,81,29090,1,0,0:0:0:0:
217,0,29256,5,4,0:0:0:0:
363,271,29590,1,0,0:0:0:0:
272,82,29923,1,0,0:0:0:0:
134,240,30256,5,4,0:2:0:0:
212,309,30423,1,0,0:0:0:0:
160,157,30590,1,0,0:0:0:0:
262,175,30756,1,0,0:0:0:0:
134,240,30923,2,0,P|159:177|160:137,1,87.5,4|0,0:0|0:0,0:0:0:0:
161,52,31256,5,4,0:2:0:0:
209,145,31423,1,0,0:0:0:0:
303,133,31590,1,0,0:0:0:0:
226,78,31757,1,0,0:0:0:0:
138,125,31923,2,0,P|148:183|178:211,1,87.5,4|0,0:0|0:0,0:0:0:0:
283,279,32256,6,0,P|312:188|365:113,1,175,4|0,0:2|0:0,0:0:0:0:
419,248,32756,1,0,0:0:0:0:
283,279,32923,2,0,P|190:266|145:238,1,131.25,0|0,0:0|0:0,0:0:0:0:
158,248,33256,5,0,0:0:0:0:
287,59,33590,2,0,P|374:112|403:184,1,175,0|0,0:0|0:0,0:0:0:0:
167,123,34256,6,0,B|225:139|225:139|288:109|354:158|342:238|294:261,1,262.5,4|0,0:2|0:0,0:0:0:0:
260,201,34923,2,0,B|224:244|250:289,1,87.5,4|0,0:0|0:0,0:0:0:0:
153,204,35256,6,0,B|189:161|163:116,1,87.5,4|0,0:2|0:0,0:0:0:0:
229,37,35590,1,0,0:0:0:0:
229,37,35756,1,0,0:0:0:0:
306,107,35923,2,0,P|326:150|364:180,1,87.5,4|0,0:0|0:0,0:0:0:0:
309,269,36256,6,0,P|289:226|251:196,1,87.5,4|0,0:2|0:0,0:0:0:0:
207,292,36590,2,0,P|189:331|156:359,1,87.5,0|0,0:0|0:0,0:0:0:0:
107,266,36923,2,0,P|128:224|180:191,1,87.5,4|0,0:0|0:0,0:0:0:0:
259,200,37256,5,4,0:2:0:0:
364,60,37590,1,0,0:0:0:0:
259,200,37923,1,0,0:0:0:0:
85,221,38256,6,0,P|101:263|135:298,1,87.5,4|0,0:2|0:0,0:0:0:0:
161,193,38590,1,0,0:0:0:0:
203,116,38756,1,0,0:0:0:0:
309,106,38924,2,0,P|283:70|246:47,1,87.5,4|0,0:0|0:0,0:0:0:0:
161,193,39256,6,0,P|202:218|246:213,1,87.5,4|0,0:2|0:0,0:0:0:0:
217,138,39590,1,0,0:0:0:0:
132,119,39756,1,0,0:0:0:0:
73,184,39923,2,0,P|84:233|128:271,1,87.5,4|0,0:0|0:0,0:0:0:0:
195,299,40256,5,4,0:0:0:0:
404,139,40590,1,2,0:2:0:0:
341,78,40756,1,2,0:2:0:0:
320,163,40923,1,2,0:2:0:0:
416,308,41256,5,8,0:0:0:0:
479,144,41590,5,4,0:0:0:0:
318,279,42423,38,0,P|230:271|166:215,1,175
138,151,43423,2,0,B|215:126|235:195|219:182|250:205|257:205|257:205|276:194|298:197,1,175
318,279,44423,2,0,B|388:246|371:171|371:171|382:127|413:97,1,210
351,51,45590,2,0,B|308:103|297:151|297:151|266:176|191:165,1,210
203,96,46756,2,0,P|148:122|197:237,1,210
256,192,47923,12,0,51090,0:0:0:0:
298,187,51496,6,0,P|278:216|272:258,2,70
322,136,52059,1,0,0:0:0:0:
333,81,52247,1,2,0:0:0:0:
220,163,52434,5,0,0:0:0:0:
173,194,52622,1,0,0:0:0:0:
160,248,52809,1,0,0:0:0:0:
185,297,52997,1,0,0:0:0:0:
237,316,53184,1,0,0:0:0:0:
265,267,53372,1,2,0:0:0:0:
220,163,53559,6,0,L|241:93,5,46.6666666666667,0|0|0|0|0|2,0:0|0:0|0:0|0:0|0:0|0:0,0:0:0:0:
286,133,54309,6,0,B|283:111|283:111|269:78,6,46.6666666666667,0|0|0|0|0|0|2,0:0|0:0|0:0|0:0|0:0|0:0|0:0,0:0:0:0:
336,148,55184,6,0,L|331:202,4,46.6666666666667
342,96,55809,5,4,0:0:0:0:
