osu file format v14

[General]
AudioFilename: Solatorobo Red the Hunter - And then, to CODA.mp3
AudioLeadIn: 0
PreviewTime: 26257
Countdown: 0
SampleSet: Soft
StackLeniency: 0.7
Mode: 0
LetterboxInBreaks: 1
WidescreenStoryboard: 1

[Editor]
DistanceSpacing: 1.1
BeatDivisor: 4
GridSize: 4
TimelineZoom: 1.9

[Metadata]
Title:And then, to CODA
TitleUnicode:And then, to CODA
Artist:Tomoyo Mitani
ArtistUnicode:三谷 朋世
Creator:Boldenouy
Version:Easy
Source:Solatorobo: Red the Hunter
Tags:sorekara coda e chiyako fukuda ost
BeatmapID:842318
BeatmapSetID:331204

[Difficulty]
HPDrainRate:3
CircleSize:2.5
OverallDifficulty:3
ApproachRate:4
SliderMultiplier:0.8
SliderTickRate:1

[Events]
//Background and Video events
Video,0,"Solatorobo Red the Hunter - Official Opening Animation.avi"
0,0,"solatorobo.jpg",0,0
//Break Periods
2,52446,54489
//Storyboard Layer 0 (Background)
//Storyboard Layer 1 (Fail)
//Storyboard Layer 2 (Pass)
//Storyboard Layer 3 (Foreground)
//Storyboard Sound Samples

[TimingPoints]
117,333.333333333333,3,2,0,55,1,0
8114,-100,3,2,0,20,0,0
16116,-100,3,2,0,30,0,0
20116,-100,3,2,0,40,0,0
26257,333.333333333333,3,2,0,40,1,1
26257,-100,3,2,0,55,0,1
30173,-100,3,2,0,55,0,0
30256,-100,3,2,0,55,0,1
33923,-100,3,2,0,55,0,0
34256,-100,3,2,0,55,0,1
42423,-100,3,2,0,35,0,0
43090,-100,3,2,0,5,0,0
43423,-100,3,2,0,35,0,0
44090,-100,3,2,0,5,0,0
44423,-100,3,2,0,35,0,0
45256,-100,3,2,0,5,0,0
45590,-100,3,2,0,35,0,0
46423,-100,3,2,0,5,0,0
46756,-100,3,2,0,35,0,0
47590,-100,3,2,0,5,0,0
47923,-100,3,2,0,35,0,0
51309,375,3,2,0,25,1,0

[Colours]
Combo1 : 235,235,235
Combo2 : 190,103,16
Combo3 : 208,4,4
Combo4 : 253,123,234

[HitObjects]
54,183,117,6,0,B|104:145|162:151|162:151|190:196,1,160,4|0,0:0|0:0,0:0:0:0:
214,271,1116,1,0,0:0:0:0:
299,292,1450,1,0,3:0:0:0:
376,251,1783,1,0,3:0:0:0:
406,168,2116,6,2,B|383:103|383:103|341:118|341:118|286:89,1,160,0|0,3:0|0:0,0:0:0:0:
237,34,3116,1,0,0:0:0:0:
216,119,3450,1,2,0:0:0:0:
129,131,3783,1,0,0:0:0:0:
160,213,4116,6,0,P|181:250|182:303,1,80,0|0,3:0|0:0,0:0:0:0:
97,273,4783,2,0,P|76:236|75:183,1,80,0|0,3:0|0:0,0:0:0:0:
129,131,5450,2,0,P|167:113|196:77,2,80,0|2|0,3:0|0:0|3:0,0:0:0:0:
308,324,7116,6,0,L|307:245,1,80,0|0,3:0|3:0,0:0:0:0:
348,73,8116,6,0,P|382:95|402:140,1,80,0|0,3:0|0:0,0:0:0:0:
335,294,9116,2,0,P|296:284|253:292,1,80,0|0,3:0|0:0,0:0:0:0:
175,134,10116,6,0,P|208:103|223:66,1,80,0|0,3:0|0:0,0:0:0:0:
56,133,11116,2,0,P|45:168|47:211,1,80,0|0,3:0|0:0,0:0:0:0:
187,316,12116,6,0,P|211:340|259:346,1,80,0|0,3:0|0:0,0:0:0:0:
253,258,12783,1,0,0:0:0:0:
209,181,13116,2,0,P|207:137|226:104,1,80,0|0,3:0|0:0,0:0:0:0:
267,29,13783,1,0,0:0:0:0:
312,104,14116,6,0,P|325:137|365:158,1,80,0|0,3:0|0:0,0:0:0:0:
434,210,14783,1,0,0:0:0:0:
400,292,15116,1,0,3:0:0:0:
224,303,15783,1,0,0:0:0:0:
181,226,16116,5,0,0:0:0:0:
203,140,16450,2,0,P|243:117|289:117,1,80,2|0,0:0|0:0,0:0:0:0:
341,173,17116,2,0,P|301:196|255:196,1,80,2|0,0:0|0:0,0:0:0:0:
94,170,18116,2,0,L|113:80,1,80,0|0,3:0|0:0,0:0:0:0:
198,86,18783,1,0,0:0:0:0:
182,172,19116,6,0,L|165:250,2,80
198,86,20116,2,0,P|237:107|285:112,1,80,0|0,3:0|0:0,0:0:0:0:
384,248,21116,6,0,P|348:264|293:259,1,80,0|0,3:0|0:0,0:0:0:0:
157,172,22116,6,0,P|128:140|88:116,1,80,0|0,3:0|0:0,0:0:0:0:
169,280,23116,6,0,B|218:222|272:228|272:228|305:159|254:116,1,240,2|2,3:2|0:0,0:0:0:0:
310,48,24450,2,0,B|426:166|341:280|328:295|328:295|308:351,1,320
208,270,26257,6,0,B|227:230|221:173|221:173|284:154,1,160,4|2,0:0|0:0,0:0:0:0:
367,158,27257,2,0,P|326:81|249:76,1,160,0|0,3:0|0:0,0:0:0:0:
182,110,28256,6,0,B|126:111|121:151|121:151|79:149|66:213,1,160,2|0,0:0|0:0,3:0:0:0:
109,280,29256,1,2,0:0:0:0:
190,312,29590,1,0,3:0:0:0:
175,225,29923,1,2,3:0:0:0:
115,160,30256,6,2,B|150:130|193:139|193:139|244:156|276:118,1,160,6|2,3:2|0:0,0:0:0:0:
221,52,31256,1,8,3:0:0:0:
269,221,31923,1,2,0:0:0:0:
214,152,32256,2,0,P|182:216|301:302,1,240,2|0,3:2|3:0,3:2:0:0:
269,221,33590,1,0,3:0:0:0:
398,102,34256,6,0,B|400:165|345:178|345:178|329:146|286:134,1,160,4|2,0:0|0:0,0:0:0:0:
214,138,35256,2,0,P|207:217|137:252,1,160,0|2,3:0|0:0,0:0:0:0:
134,164,36256,5,0,3:0:0:0:
257,289,36923,2,0,P|285:260|299:213,1,80,2|0,0:0|3:0,0:0:0:0:
291,135,37590,1,4,3:0:0:0:
373,164,37923,1,8,3:0:0:0:
445,113,38256,6,0,P|463:163|402:249,1,160,6|0,3:2|3:2,0:2:0:0:
373,164,39256,2,0,L|283:144,1,80,4|0,0:0|0:0,0:0:0:0:
237,80,39923,1,0,3:0:0:0:
167,133,40256,22,2,P|166:222|234:264,1,160,2|0,0:0|3:0,0:0:0:0:
243,176,41256,1,8,3:0:0:0:
325,144,41590,1,4,3:0:0:0:
109,99,42423,38,0,P|72:183|105:244,1,160,2|0,0:0|0:0,0:0:0:0:
159,174,43423,2,0,P|221:115|297:90,1,160,2|0,0:0|0:0,0:0:0:0:
328,170,44423,2,0,B|281:173|248:199|248:199|339:250|286:297,1,200,2|0,0:0|0:0,0:0:0:0:
381,310,45590,2,0,B|394:271|388:238|388:238|434:176|399:120,1,200,2|0,0:0|0:0,0:0:0:0:
328,170,46756,2,0,B|284:160|243:181|243:181|194:204|132:169,1,200,2|0,0:0|0:0,0:0:0:0:
256,192,47923,12,0,52246,0:0:0:0:
256,192,55809,21,4,0:0:0:0:
