osu file format v4

[General]
AudioFilename: OUENDAN Thrill.mp3
AudioLeadIn: 0
AudioHash: 0b6eb68ed97c2f286a6c3027a6a18f0d
PreviewTime: -1
Countdown: 1
SampleSet: Normal
EditorBookmarks: 15000,15342,15685,16028,16371,84942,118034,123564,142542

[Metadata]
Title:Thrill
Artist:Tomoyasu Hotei
Creator:Rolled
Version:Insane

[Difficulty]
HPDrainRate:7
CircleSize:6
OverallDifficulty:7
SliderMultiplier: 1.5
SliderTickRate: 2

[Events]
//Background and Video events
//Break Periods
2,38192,48282
2,70745,81003
2,106747,116662
2,128348,135863
//Storyboard Layer 0 (Background)
//Storyboard Layer 1 (Failing)
//Storyboard Layer 2 (Passing)
//Storyboard Layer 3 (Foreground)
//Storyboard Sound Samples
//Background Colour Transformations
3,100,163,162,255

[TimingPoints]
5400,342.857142857143,4,1,0,100

[HitObjects]
40,200,16371,1,0
40,336,16714,1,0
176,336,17057,5,4
320,336,17400,1,0
320,272,17572,1,4
176,272,17914,1,0
176,208,18086,1,4
320,208,18429,1,0
320,144,18600,1,4
176,144,18943,1,0
176,80,19114,1,4
320,80,19457,1,4
224,336,20143,5,0
288,336,20315,1,0
256,280,20486,1,0
224,200,20829,1,0
288,200,21000,1,4
256,80,21343,1,4
384,48,21686,2,2,C|384:48|440:96|464:176,2,150
288,336,22885,5,0
224,336,23057,1,0
256,280,23228,1,0
288,200,23571,1,0
224,200,23742,1,4
256,80,24085,1,4
128,48,24429,2,2,C|128:48|72:96|48:176,3,150
256,336,25972,5,4
256,192,26486,1,4
472,200,27343,5,0
472,336,27686,1,0
336,336,28029,5,4
192,336,28372,1,0
192,272,28544,1,4
336,272,28886,1,0
336,208,29058,1,4
192,208,29401,1,0
192,144,29572,1,4
336,144,29915,1,0
336,80,30086,1,4
192,80,30429,1,4
256,336,31114,5,0
288,280,31286,1,0
224,280,31457,1,0
224,200,31800,1,0
288,200,31971,1,4
256,80,32314,1,4
128,48,32658,2,2,C|128:48|72:96|48:176,2,150
256,336,33857,5,0
224,280,34029,1,0
288,280,34200,1,0
288,200,34543,1,0
224,200,34714,1,4
256,80,35057,1,4
384,48,35401,2,2,C|384:48|440:96|464:176,3,150
256,352,36944,5,0
256,280,37115,1,4
256,144,37458,1,4
256,32,37801,1,4
384,352,49287,5,2
256,352,49630,1,2
128,352,49973,1,2
128,216,50316,1,2
128,144,50488,1,2
184,176,50659,2,2,C|184:176|424:176,1,225
128,48,52030,5,2
256,48,52373,1,2
256,104,52545,1,2
256,160,52716,1,2
352,88,53059,1,2
400,48,53231,1,2
456,24,53402,2,2,C|456:24|456:264,1,225
384,352,54773,5,2
256,352,55116,1,2
128,352,55459,1,2
128,216,55802,1,2
128,144,55974,1,2
184,176,56145,2,2,C|184:176|424:176,1,225
480,128,57002,1,0
384,48,57345,1,0
320,48,57516,6,2,C|320:48|16:48,3,300
128,352,60257,5,2
256,352,60600,1,2
384,352,60943,1,2
384,216,61286,1,2
384,144,61458,1,2
328,176,61629,2,2,C|328:176|88:176,1,225
384,48,63000,5,2
256,48,63343,1,2
256,104,63515,1,2
256,160,63686,1,2
160,88,64029,1,2
112,48,64201,1,2
56,24,64372,2,2,C|56:24|56:264,1,225
128,352,65743,5,2
256,352,66086,1,2
384,352,66429,1,2
384,216,66772,1,2
384,144,66944,1,2
328,176,67115,2,2,C|328:176|88:176,1,225
32,128,67972,1,0
128,48,68315,1,0
192,48,68486,6,2,C|192:48|496:48,3,300
64,208,82203,5,2
448,208,82889,1,0
256,256,83575,1,0
256,200,83746,1,0
256,144,83918,1,0
256,88,84089,1,0
40,200,84942,5,0
40,336,85285,1,0
176,336,85628,5,4
320,336,85971,1,0
320,272,86143,1,4
176,272,86485,1,0
176,208,86657,1,4
320,208,87000,1,0
320,144,87171,1,4
176,144,87514,1,0
176,80,87685,1,4
320,80,88028,1,4
224,336,88714,5,0
288,336,88886,1,0
256,280,89057,1,0
224,200,89400,1,0
288,200,89571,1,4
256,80,89914,1,4
384,48,90257,2,2,C|384:48|440:96|464:176,2,150
224,336,91456,5,0
288,336,91628,1,0
256,280,91799,1,0
288,200,92142,1,0
224,200,92313,1,4
256,80,92656,1,4
128,48,93000,2,2,C|128:48|72:96|48:176,3,150
256,336,94543,5,4
256,192,95057,1,4
472,200,95914,5,0
472,336,96257,1,0
336,336,96600,5,4
192,336,96943,1,0
192,272,97115,1,4
336,272,97457,1,0
336,208,97629,1,4
192,208,97972,1,0
192,144,98143,1,4
336,144,98486,1,0
336,80,98657,1,4
192,80,99000,1,4
256,336,99685,5,0
288,280,99857,1,0
224,280,100028,1,0
288,200,100371,1,0
224,200,100542,1,4
256,80,100885,1,4
128,48,101229,2,2,C|128:48|72:96|48:176,2,150
256,336,102428,5,0
224,280,102600,1,0
288,280,102771,1,0
224,200,103114,1,0
288,200,103285,1,4
256,80,103628,1,4
440,144,103976,2,2,B|440:144|431:-11|282:-5|49:-18|56:152,1,525
120,248,105519,6,2,B|120:248|119:95|260:87|403:100|408:272,1,450
480,192,117862,5,0
480,64,118205,1,0
400,64,118377,1,2
256,64,118720,1,2
48,320,119234,5,0
48,192,119577,1,0
128,192,119749,1,2
272,192,120092,1,2
320,352,120600,6,2,B|320:352|160:352,3,150
256,240,121977,1,4
32,32,123348,5,0
32,160,123691,1,0
112,160,123863,1,2
256,160,124206,1,2
464,320,124720,5,0
464,192,125063,1,0
384,192,125235,1,2
240,192,125578,1,2
128,304,126091,6,4,B|128:304|208:368|336:368|408:296,3,300
256,352,137063,5,0
200,312,137235,1,0
224,248,137406,1,0
288,248,137578,1,0
312,312,137749,1,4
256,32,138428,5,0
200,72,138600,1,0
224,136,138771,1,0
288,136,138943,1,0
312,72,139114,1,4
72,208,139806,5,2
456,208,140492,1,4
224,128,141178,5,4
224,192,141349,1,0
288,192,141521,1,0
288,128,141692,1,4
40,200,142542,5,0
40,336,142885,1,0
176,336,143228,5,4
320,336,143571,1,0
320,272,143743,1,4
176,272,144085,1,0
176,208,144257,1,4
320,208,144600,1,0
320,144,144771,1,4
176,144,145114,1,0
176,80,145285,1,4
320,80,145628,1,4
288,336,146314,5,0
224,336,146486,1,0
256,280,146657,1,0
288,200,147000,1,0
224,200,147171,1,4
256,80,147514,1,4
384,48,147857,2,2,C|384:48|440:96|464:176,2,150
224,336,149056,5,0
288,336,149228,1,0
256,280,149399,1,0
224,200,149742,1,0
288,200,149913,1,4
256,80,150256,1,4
128,48,150600,2,2,C|128:48|72:96|48:176,3,150
264,336,152143,5,4
264,192,152657,1,4
472,200,153514,5,0
472,336,153857,1,0
336,336,154200,5,4
192,336,154543,1,0
192,272,154715,1,4
336,272,155057,1,0
336,208,155229,1,4
192,208,155572,1,0
192,144,155743,1,4
336,144,156086,1,0
336,80,156257,1,4
192,80,156600,1,4
256,336,157285,5,0
288,280,157457,1,0
224,280,157628,1,0
224,200,157971,1,0
288,200,158142,1,4
256,80,158485,1,4
128,48,158829,2,2,C|128:48|72:96|48:176,2,150
256,192,160379,12,2,164493
