osu file format v4

[General]
AudioFilename: OUENDAN Thrill.mp3
AudioLeadIn: 0
AudioHash: 0b6eb68ed97c2f286a6c3027a6a18f0d
PreviewTime: -1
SampleSet: Normal
EditorBookmarks: 118034,123564

[Metadata]
Title:Thrill
Artist:Tomoyasu Hotei
Creator:Rolled
Version:Hard

[Difficulty]
HPDrainRate:6
CircleSize:5
OverallDifficulty:6
SliderMultiplier: 1.5
SliderTickRate: 2

[Events]
//Background and Video events
//Break Periods
2,38192,48282
2,70745,81003
2,106747,116662
2,128348,135863
//Storyboard Layer 0 (Background)
//Storyboard Layer 1 (Failing)
//Storyboard Layer 2 (Passing)
//Storyboard Layer 3 (Foreground)
//Storyboard Sound Samples
//Background Colour Transformations

[TimingPoints]
5400,342.857142857143,4,1,0,100

[HitObjects]
472,184,16371,1,0
472,48,16714,1,0
336,48,17057,5,4
192,48,17399,1,0
192,112,17571,1,4
336,112,17914,1,0
336,176,18085,1,4
192,176,18428,1,0
192,240,18599,1,4
336,240,18942,1,0
336,304,19114,1,4
192,304,19457,1,4
256,48,20142,5,0
256,48,20314,1,0
256,48,20485,1,0
256,176,20828,1,0
256,176,20999,1,4
256,304,21342,1,4
128,336,21685,2,2,B|128:336|65:289|48:208,2,150
256,48,22885,5,0
256,48,23057,1,0
256,48,23228,1,0
256,176,23571,1,0
256,176,23742,1,4
256,304,24085,1,4
384,336,24428,2,2,B|384:336|448:292|464:208,3,150
256,48,25971,5,4
256,192,26485,1,4
40,184,27342,5,0
40,48,27685,1,0
176,48,28028,5,4
320,48,28371,1,0
320,112,28542,1,4
176,112,28885,1,0
176,176,29057,1,4
320,176,29400,1,0
320,240,29571,1,4
176,240,29914,1,0
176,304,30085,1,4
320,304,30428,1,4
256,48,31114,5,0
256,48,31285,1,0
256,48,31457,1,0
256,176,31800,1,0
256,176,31971,1,4
256,304,32314,1,4
384,336,32657,2,2,B|384:336|450:292|464:208,2,150
256,48,33857,5,0
256,48,34028,1,0
256,48,34200,1,0
256,176,34542,1,0
256,176,34714,1,4
256,304,35057,1,4
128,336,35400,2,2,B|128:336|65:293|48:208,3,150
256,32,36942,5,0
256,112,37114,1,4
256,240,37457,1,4
256,352,37800,1,4
128,32,49285,5,2
256,32,49628,1,2
384,32,49971,1,2
384,160,50314,1,2
384,160,50485,1,2
320,160,50657,2,2,C|320:160|80:160,1,225
384,336,52028,5,2
256,336,52371,1,2
256,336,52542,1,2
256,336,52714,1,2
128,336,53057,1,2
128,336,53228,1,2
64,336,53400,2,2,C|64:336|64:96,1,225
128,32,54771,5,2
256,32,55114,1,2
384,32,55457,1,2
384,160,55800,1,2
384,160,55971,1,2
320,160,56142,2,2,C|320:160|80:160,1,225
32,256,57000,1,0
128,336,57342,1,0
192,336,57514,6,2,C|192:336|496:336,3,300
384,32,60257,5,2
256,32,60600,1,2
128,32,60942,1,2
128,160,61285,1,2
128,160,61457,1,2
192,160,61628,2,2,C|192:160|432:160,1,225
128,336,63000,5,2
256,336,63342,1,2
256,336,63514,1,2
256,336,63685,1,2
384,336,64028,1,2
384,336,64200,1,2
448,336,64371,2,2,C|448:336|448:96,1,225
384,32,65742,5,2
256,32,66085,1,2
128,32,66428,1,2
128,160,66771,1,2
128,160,66942,1,2
192,160,67114,2,2,C|192:160|432:160,1,225
480,256,67971,5,0
384,336,68314,1,0
320,336,68485,2,2,C|320:336|16:336,3,300
448,176,82199,5,2
64,176,82885,1,0
256,240,83571,1,0
256,240,83742,1,0
256,240,83914,1,0
256,240,84085,1,0
472,184,84942,5,0
472,48,85285,1,0
336,48,85628,5,4
192,48,85971,1,0
192,112,86142,1,4
336,112,86485,1,0
336,176,86657,1,4
192,176,86999,1,0
192,240,87171,1,4
336,240,87514,1,0
336,304,87685,1,4
192,304,88028,1,4
256,48,88714,5,0
256,48,88885,1,0
256,48,89057,1,0
256,176,89399,1,0
256,176,89571,1,4
256,304,89914,1,4
128,336,90257,2,2,B|128:336|61:291|48:208,2,150
256,48,91457,5,0
256,48,91628,1,0
256,48,91799,1,0
256,176,92142,1,0
256,176,92314,1,4
256,304,92657,1,4
384,336,92999,2,2,B|384:336|450:293|464:208,3,150
256,48,94542,5,4
256,192,95057,1,4
40,184,95914,5,0
40,48,96257,1,0
176,48,96599,5,4
320,48,96942,1,0
320,112,97114,1,4
176,112,97457,1,0
176,176,97628,1,4
320,176,97971,1,0
320,240,98142,1,4
176,240,98485,1,0
176,304,98657,1,4
320,304,98999,1,4
256,48,99685,5,0
256,48,99857,1,0
256,48,100028,1,0
256,176,100371,1,0
256,176,100542,1,4
256,304,100885,1,4
384,336,101228,2,2,B|384:336|453:294|464:208,2,150
256,48,102428,5,0
256,48,102599,1,0
256,48,102771,1,0
256,176,103114,1,0
256,176,103285,1,4
256,304,103628,1,4
72,200,103971,2,2,B|72:200|93:368|254:389|434:371|424:192,1,525
384,80,105514,6,2,B|384:80|385:241|244:249|101:236|104:64,1,450
32,192,117857,5,0
32,320,118199,1,0
112,320,118371,1,2
256,320,118714,1,2
464,320,119228,5,0
464,192,119571,1,0
384,192,119742,1,2
240,192,120085,1,2
192,32,120599,6,2,B|192:32|352:32,3,150
256,144,121971,1,4
480,192,123342,5,0
480,320,123685,1,0
400,320,123857,1,2
256,320,124199,1,2
48,320,124714,5,0
48,192,125057,1,0
128,192,125228,1,2
272,192,125571,1,2
384,96,126085,6,0,B|384:96|304:16|176:16|112:104,3,300
256,48,137057,5,0
256,48,137228,1,0
256,48,137399,1,0
256,48,137571,1,0
256,48,137742,1,4
256,320,138428,5,0
256,320,138599,1,0
256,320,138771,1,0
256,320,138942,1,0
256,320,139114,1,4
480,176,139799,5,2
32,176,140485,1,0
256,176,141171,5,4
256,176,141342,1,4
256,176,141514,1,4
256,176,141685,1,4
472,184,142542,5,0
472,48,142885,1,0
336,48,143228,5,4
192,48,143571,1,0
192,112,143742,1,4
336,112,144085,1,0
336,176,144257,1,4
192,176,144599,1,0
192,240,144771,1,4
336,240,145114,1,0
336,304,145285,1,4
192,304,145628,1,4
256,48,146314,5,0
256,48,146485,1,0
256,48,146657,1,0
256,176,146999,1,0
256,176,147171,1,4
256,304,147514,1,4
128,336,147857,2,2,B|128:336|59:294|48:208,2,150
256,48,149057,5,0
256,48,149228,1,0
256,48,149399,1,0
256,176,149742,1,0
256,176,149914,1,4
256,304,150257,1,4
384,336,150599,2,2,B|384:336|450:295|464:208,3,150
256,48,152142,5,4
256,192,152657,1,4
40,184,153514,1,0
40,48,153857,1,0
176,48,154199,5,4
320,48,154542,1,0
320,112,154714,1,4
176,112,155057,1,0
176,176,155228,1,4
320,176,155571,1,0
320,240,155742,1,4
176,240,156085,1,0
176,304,156257,1,4
320,304,156599,1,4
256,48,157285,5,0
256,48,157457,1,0
256,48,157628,1,0
256,176,157971,1,0
256,176,158142,1,4
256,304,158485,1,4
384,336,158828,2,2,B|384:336|449:295|464:208,2,150
256,192,160371,12,2,164485
