osu file format v5

[General]
AudioFilename: Kill Bill Vol. 1 Soundtrack - 09 - Tomoyasu Hotei - Battle Without Honor or Humanity.mp3
AudioLeadIn: 0
PreviewTime: -1
Countdown: 1
SampleSet: Normal
StackLeniency: 0.7
Mode: 0
LetterboxInBreaks: 1
EditorDistanceSpacing: 1.20000004768372

[Metadata]
Title:Battle Without Honor or Humanity
Artist:Tomoyasu Hotei
Creator:SacroiD
Version:Normal
Source:
Tags:

[Difficulty]
HPDrainRate:4
CircleSize:4
OverallDifficulty:5
SliderMultiplier:1.3
SliderTickRate:4

[Events]
//Background and Video events
0,0,"caratulas_BSO_KILL_BILL_VOLUME_1-BSO_KILL_BILL_VOLUME_1-FRONTAL.jpg"
//Break Periods
2,60938,69734
2,71784,75910
2,106780,111222
2,116914,118981
2,121031,131332
//Storyboard Layer 0 (Background)
//Storyboard Layer 1 (Failing)
//Storyboard Layer 2 (Passing)
//Storyboard Layer 3 (Foreground)
//Storyboard Sound Samples
//Background Colour Transformations
3,100,163,162,255

[TimingPoints]
20913,633.397872340424,4,1,0,100,1,0
41076,-100,4,1,0,100,0,1
61063,-100,4,1,0,100,0,0
81523,-100,4,1,0,100,0,1
101776,-100,4,1,0,100,0,0

[Colours]
Combo1 : 129,157,98
Combo2 : 251,247,77
Combo3 : 157,2,2
Combo4 : 174,133,70

[HitObjects]
256,48,19962,1,2
256,168,20438,1,2
256,280,20913,1,6
408,280,21546,5,8
408,120,22179,1,8
288,224,22813,1,8
144,296,23446,1,8
160,136,24080,1,8
272,136,24555,1,4
352,136,24871,1,4
352,136,25030,1,4
432,136,25346,1,8
296,64,25980,5,0
296,224,26613,1,8
296,152,27088,1,4
208,152,27405,1,4
159,151,27563,1,4
72,152,27880,1,8
264,72,28513,5,2
344,120,28830,1,2
424,160,29147,1,2
256,192,30097,12,8,31047
384,128,31680,5,4
200,128,32314,1,8
200,312,32947,1,8
384,312,33581,1,0
384,136,34214,1,12
248,136,34689,1,2
160,168,35006,1,6
160,216,35164,1,6
64,216,35481,1,10
80,32,36114,5,0
264,32,36748,1,2
264,216,37381,1,0
448,216,38014,1,2
264,216,38648,1,0
80,216,39281,1,2
208,200,39914,5,8
208,200,40072,1,8
208,200,40231,1,8
208,200,40389,1,8
208,200,40547,1,8
208,200,40706,1,8
208,200,40864,1,8
320,192,41181,6,2,B|394:-73|165:75,1,325
194,170,43081,5,0
172,187,43240,1,0
208,197,43398,1,0
181,224,43557,1,0
172,250,43715,1,0
256,336,44348,5,8
352,264,44823,1,0
280,216,45140,1,0
248,192,45298,1,0
176,136,45615,1,8
384,128,46248,6,2,B|116:84,1,260
64,160,48149,1,4
64,256,48782,2,2,B|187:91|416:288,1,390
160,224,51316,6,2,B|86:-41|315:107,1,325
318,170,53216,5,0
340,187,53375,1,0
304,197,53533,1,0
331,224,53692,1,0
340,250,53850,1,0
160,232,54483,5,8
296,232,54958,1,0
296,152,55275,1,0
296,112,55433,1,0
296,16,55750,1,8
128,152,56383,6,2,B|396:108,1,260
440,152,58284,1,12
416,256,58916,2,6,B|309:93|64:288,1,390
256,32,70634,5,2
384,160,71109,1,2
128,160,71584,1,6
256,192,76652,12,0,81085
160,224,81719,6,2,B|86:-41|315:107,1,325
288,160,83619,5,0
256,160,83778,1,0
256,192,83936,1,0
160,192,84253,1,0
272,368,84886,5,4
272,288,85361,1,0
272,224,85678,1,0
272,192,85836,1,0
272,128,86153,1,4
192,64,86786,6,10,B|228:238|323:154|349:60,1,260
448,160,88687,1,8
416,256,89319,2,10,B|309:93|64:312,1,390
352,160,91853,6,2,B|426:425|197:277,1,325
256,224,93753,5,0
224,192,93912,1,0
288,192,94070,1,0
256,96,94387,1,0
384,96,95020,5,4
384,176,95495,1,0
384,256,95812,1,0
384,288,95970,1,0
384,352,96287,1,4
384,224,96920,6,2,B|116:268,1,260
64,224,98821,1,8
64,128,99454,2,14,B|171:291|416:96,1,390
120,304,101987,6,4,B|121:202,2,97.5
178,289,103254,2,4,B|119:205,2,97.5
218,211,104521,2,4,B|118:210,2,97.5
338,186,105788,6,2,B|338:222,2,32.5
352,288,106421,1,8
312,288,106580,1,8
318,279,112122,6,4,B|259:195,2,97.5
261,200,113389,2,4,B|202:116,2,97.5
259,198,114655,2,4,B|200:282,2,97.5
352,160,115922,5,2
352,160,116081,1,2
352,160,116239,1,4
256,160,116556,1,8
256,160,116714,1,8
216,152,119881,5,2
296,152,120198,5,2
296,232,120514,5,2
216,232,120831,5,2
192,192,132391,5,0
344,192,133024,1,4
344,344,133657,1,0
192,344,134291,1,4
192,192,134924,5,0
192,24,135558,1,6
280,96,136033,1,2
328,160,136349,1,2
348,186,136508,1,2
412,250,136824,1,6
256,248,137458,5,0
256,104,138091,1,2
104,104,138725,1,0
104,256,139358,1,2
224,168,139991,1,0
344,64,140625,1,8
256,192,141575,12,4,143475
