osu file format v5

[General]
AudioFilename: Kill Bill Vol. 1 Soundtrack - 09 - Tomoyasu Hotei - Battle Without Honor or Humanity.mp3
AudioLeadIn: 0
PreviewTime: -1
Countdown: 1
SampleSet: Normal
StackLeniency: 0.7
Mode: 0
LetterboxInBreaks: 1
EditorBookmarks: 27405
EditorDistanceSpacing: 0.800000011920929

[Metadata]
Title:Battle Without Honor or Humanity
Artist:Tomoyasu Hotei
Creator:SacroiD
Version:Easy
Source:Kill Bill
Tags:

[Difficulty]
HPDrainRate:3
CircleSize:3
OverallDifficulty:2
SliderMultiplier:1.3
SliderTickRate:2

[Events]
//Background and Video events
0,0,"caratulas_BSO_KILL_BILL_VOLUME_1-BSO_KILL_BILL_VOLUME_1-FRONTAL.jpg"
//Break Periods
2,61016,69073
2,71784,75910
2,106620,110561
2,116914,118981
2,121031,131332
//Storyboard Layer 0 (Background)
//Storyboard Layer 1 (Failing)
//Storyboard Layer 2 (Passing)
//Storyboard Layer 3 (Foreground)
//Storyboard Sound Samples
//Background Colour Transformations
3,100,163,162,255

[TimingPoints]
20913,633.397872340424,4,1,0,100,1,0
41076,-100,4,1,0,100,0,1
61331,-100,4,1,0,100,0,0
81402,-100,4,1,0,100,0,1
100962,-100,4,1,0,100,0,0

[Colours]
Combo1 : 129,157,98
Combo2 : 251,247,77
Combo3 : 157,2,2
Combo4 : 174,133,70

[HitObjects]
256,32,19962,1,2
312,96,20437,1,2
256,152,20912,1,6
352,232,21545,5,0
456,232,22178,1,0
352,232,22812,1,0
304,312,23445,1,0
200,320,24079,1,0
200,216,24712,1,0
200,104,25345,1,0
304,104,25979,2,0,B|304:29|415:44,1,130
400,160,27246,5,0
400,264,27879,1,0
304,216,28512,1,2
296,320,29146,1,2
256,192,30097,12,8,31047
256,136,31679,5,8
360,136,32313,1,0
360,240,32946,1,8
256,240,33580,1,0
256,136,34213,1,8
360,136,34846,1,2
360,32,35480,1,8
256,32,36113,5,0
256,136,36747,1,8
344,176,37380,1,0
256,232,38013,1,10
336,296,38647,1,0
338,192,39280,1,4
440,200,39913,2,8,B|440:154,6,32.5
354,214,41180,6,0,B|428:-51|199:97,1,325
200,144,43080,5,2
160,176,43397,1,2
184,216,43714,1,2
320,288,44347,5,8
320,184,44981,1,0
416,240,45614,1,8
388,146,46247,6,2,B|352:0|107:239|57:60,2,390
320,224,50682,1,8
158,214,51315,6,2,B|84:-51|313:97,1,325
336,128,53215,5,2
352,176,53532,1,2
312,208,53849,1,2
208,216,54482,5,8
256,304,55115,1,0
304,304,55432,1,0
304,248,55748,1,10
124,145,56382,6,10,B|392:101,1,260
472,160,58283,1,10
431,253,58916,2,6,B|324:90|87:293,1,390
256,192,70633,5,4
256,96,71108,1,4
256,0,71583,1,4
256,192,76652,12,0,81085
158,214,81718,6,6,B|84:-51|313:97,1,325
304,144,83618,5,10
360,144,83935,1,2
328,200,84252,1,14
232,256,84885,5,0
128,240,85518,1,2
104,192,85835,1,2
128,144,86152,1,2
192,96,86785,6,0,B|306:248|306:248|80:280|112:224,2,390
392,96,91220,1,8
472,224,91852,6,0,B|150:358,1,325
152,256,93752,5,10
152,200,94069,1,2
152,144,94386,1,12
368,152,95019,5,8
368,208,95336,1,0
368,264,95653,1,0
368,312,95969,1,0
304,312,96286,1,8
320,192,96919,6,0,B|75:161|75:161|23:300,2,390
314,218,101354,6,0,B|245:187,1,65
256,128,101987,5,4
256,128,103253,1,4
254,191,104520,1,4
257,81,105787,6,0,B|257:117,2,32.5
256,192,106420,1,0
256,191,112121,5,4
256,191,113388,1,4
256,191,114654,1,4
416,64,115921,5,8
384,128,116238,1,8
296,128,116555,1,4
296,128,116714,1,4
312,144,119880,5,8
312,240,120197,5,8
200,240,120513,5,8
200,144,120830,5,8
160,160,132390,5,4
264,160,133023,1,8
296,256,133656,1,0
192,256,134290,1,8
192,160,134923,5,0
192,56,135557,1,10
296,24,136190,1,2
296,128,136823,1,10
280,232,137457,5,0
176,208,138090,1,10
128,104,138724,1,0
232,104,139357,1,10
336,104,139990,1,0
336,208,140624,1,8
256,192,141575,12,4,143475
