osu file format v14

[General]
AudioFilename: Rescue Before Melting.mp3
AudioLeadIn: 0
PreviewTime: 55155
Countdown: 0
SampleSet: Soft
StackLeniency: 0.7
Mode: 0
LetterboxInBreaks: 1
WidescreenStoryboard: 0
SamplesMatchPlaybackRate: 1

[Editor]
DistanceSpacing: 1
BeatDivisor: 3
GridSize: 4
TimelineZoom: 1

[Metadata]
Title:Torokeru Mae ni Kyuushutsu da
TitleUnicode:とろける前に救出だ
Artist:Tomoya Ohtani
ArtistUnicode:大谷 智哉
Creator:Baraatje123
Version:Advanced
Source:スペースチャンネル5 パート2
Tags:Report2 Rescue before melting Space Channel 5 Part 2 サウンドトラック ボリューム「ヘイ!!」 Supēsu Channeru Faibu Pāto Tsū Ulala うらら Urara Purge パージ Pāji Shadow シャドー Shadō Hey! Chu! Shoot! Kenichi Tokoi 床井健一 Mariko Nanba 南波真理子
BeatmapID:841314
BeatmapSetID:385114

[Difficulty]
HPDrainRate:4
CircleSize:4
OverallDifficulty:6
ApproachRate:6
SliderMultiplier:0.95
SliderTickRate:1

[Events]
//Background and Video events
0,0,"Background.jpg",0,0
//Break Periods
2,49700,51882
//Storyboard Layer 0 (Background)
//Storyboard Layer 1 (Fail)
//Storyboard Layer 2 (Pass)
//Storyboard Layer 3 (Foreground)
//Storyboard Sound Samples

[TimingPoints]
2791.87205483736,272.727272727273,4,2,1,40,1,0
12882,-100,4,2,2,40,0,0
12973,-100,4,2,1,40,0,0
13973,-100,4,2,2,40,0,0
14064,-100,4,2,1,40,0,0
16155,-100,4,2,2,40,0,0
16246,-100,4,2,1,40,0,0
16700,-100,4,2,2,40,0,0
16791,-100,4,2,1,40,0,0
19428,-100,4,2,2,40,0,0
19519,-100,4,2,1,40,0,0
22700,-100,4,2,2,40,0,0
22791,-100,4,2,1,40,0,0
24882,-100,4,2,2,40,0,0
24973,-100,4,2,1,40,0,0
27064,-100,4,2,2,40,0,0
27155,-100,4,2,1,40,0,0
27337,-100,4,2,2,40,0,0
27428,-100,4,2,1,40,0,0
28155,-100,4,2,2,40,0,0
28246,-100,4,2,1,40,0,0
28428,-100,4,2,2,40,0,0
28519,-100,4,2,1,40,0,0
28973,-90.9090909090909,4,2,1,40,0,1
30337,-90.9090909090909,4,2,2,40,0,1
30428,-90.9090909090909,4,2,1,40,0,1
32519,-90.9090909090909,4,2,2,40,0,1
32610,-90.9090909090909,4,2,1,40,0,1
34700,-90.9090909090909,4,2,2,40,0,1
34791,-90.9090909090909,4,2,1,40,0,1
36882,-90.9090909090909,4,2,2,40,0,1
36973,-90.9090909090909,4,2,1,40,0,1
39064,-90.9090909090909,4,2,2,40,0,1
39155,-90.9090909090909,4,2,1,40,0,1
41246,-90.9090909090909,4,2,2,40,0,1
41337,-90.9090909090909,4,2,1,40,0,1
43428,-90.9090909090909,4,2,2,40,0,1
43519,-90.9090909090909,4,2,1,40,0,1
45610,-90.9090909090909,4,2,2,40,0,1
45700,-90.9090909090909,4,2,1,40,0,1
45882,-90.9090909090909,4,2,2,40,0,1
45973,-90.9090909090909,4,2,1,40,0,1
46155,-90.9090909090909,4,2,2,40,0,1
46246,-90.9090909090909,4,2,1,40,0,1
46428,-100,4,2,1,40,0,0
55428,-100,4,2,2,40,0,0
55519,-100,4,2,1,40,0,0
56519,-100,4,2,2,40,0,0
56610,-100,4,2,1,40,0,0
59791,-100,4,2,2,40,0,0
59882,-100,4,2,1,40,0,0
60882,-100,4,2,2,40,0,0
60973,-100,4,2,1,40,0,0
61973,-100,4,2,2,40,0,0
62064,-100,4,2,1,40,0,0
63882,-90.9090909090909,4,2,1,40,0,1
65246,-90.9090909090909,4,2,2,40,0,1
65337,-90.9090909090909,4,2,1,40,0,1
66337,-90.9090909090909,4,2,2,40,0,1
66428,-90.9090909090909,4,2,1,40,0,1
69610,-90.9090909090909,4,2,2,40,0,1
69700,-90.9090909090909,4,2,1,40,0,1
70700,-90.9090909090909,4,2,2,40,0,1
70791,-90.9090909090909,4,2,1,40,0,1
73973,-90.9090909090909,4,2,2,40,0,1
74064,-90.9090909090909,4,2,1,40,0,1
75064,-90.9090909090909,4,2,2,40,0,1
75155,-90.9090909090909,4,2,1,40,0,1
81337,-90.9090909090909,4,2,1,40,0,0
83519,-90.9090909090909,4,2,1,5,0,0

[Colours]
Combo1 : 255,0,128
Combo2 : 255,0,0
Combo3 : 0,255,0

[HitObjects]
112,56,2791,6,0,L|128:260,1,190,4|0,0:0|0:0,0:0:0:0:
196,312,3610,1,0,0:0:0:0:
288,336,3882,2,0,P|380:280|344:220,1,190
272,180,4700,1,0,0:0:0:0:
360,148,4973,6,0,P|416:180|452:304,1,190,4|0,0:0|0:0,0:0:0:0:
372,348,5791,1,0,0:0:0:0:
276,360,6064,2,0,B|144:344|224:380|76:352,1,190
16,288,6882,1,0,0:0:0:0:
8,192,7155,6,0,P|24:124|148:116,1,190,4|8,0:0|0:0,0:0:0:0:
220,136,7973,1,0,0:0:0:0:
309,102,8246,2,0,P|398:107|431:191,1,190,0|8,0:0|0:0,0:0:0:0:
272,292,9337,6,0,L|168:288,1,95,0|8,0:0|0:0,0:0:0:0:
128,208,9882,2,0,L|232:212,1,95,0|8,0:0|0:0,0:0:0:0:
320,216,10427,2,0,P|360:292|300:376,1,190,0|8,0:0|0:0,0:0:0:0:
244,344,11155,1,8,0:0:0:0:
180,376,11337,1,8,0:0:0:0:
128,324,11519,6,0,P|92:284|76:224,1,95,12|8,0:0|0:0,0:0:0:0:
120,160,12064,2,0,P|102:116|70:81,1,95,0|8,0:0|0:0,0:0:0:0:
112,8,12610,2,0,P|168:64|208:196,1,190
256,248,13428,1,8,0:0:0:0:
305,166,13700,6,0,P|335:76|400:8,1,190
496,8,14519,1,8,0:0:0:0:
441,81,14791,2,0,P|409:116|392:160,1,95,0|8,0:0|0:0,0:0:0:0:
433,245,15336,2,0,P|416:289|384:328,1,95,0|8,0:0|0:0,0:0:0:0:
292,356,15882,6,0,P|380:332|484:356,2,190
196,356,17246,1,8,0:0:0:0:
104,324,17519,2,0,P|56:288|44:236,1,95,0|8,0:0|0:0,0:0:0:0:
136,236,18064,6,0,P|168:208|200:160,1,95,0|8,0:0|0:0,0:0:0:0:
292,168,18609,2,0,P|318:207|352:240,1,95,0|8,0:0|0:0,0:0:0:0:
448,264,19155,2,0,B|464:216|464:216|420:188|372:172|352:104,1,190
332,40,19973,1,12,0:0:0:0:
420,72,20246,6,0,P|456:120|492:136,2,95,4|8|0,0:0|0:0|0:0,0:0:0:0:
332,40,21064,1,8,0:0:0:0:
236,44,21337,2,0,P|184:76|168:112,1,95,0|8,0:0|0:0,0:0:0:0:
208,192,21882,2,0,P|260:160|276:124,1,95,0|8,0:0|0:0,0:0:0:0:
356,100,22428,6,0,P|328:200|240:264,1,190
180,296,23246,1,8,0:0:0:0:
260,344,23519,2,0,P|308:324|360:284,1,95,0|8,0:0|0:0,0:0:0:0:
400,220,24064,2,0,P|437:191|480:171,1,95,0|8,0:0|0:0,0:0:0:0:
400,120,24610,6,0,B|359:147|332:176|332:176|276:188|276:188|216:208,1,190
148,244,25428,1,8,0:0:0:0:
136,152,25700,2,0,L|248:116,1,95,0|8,0:0|0:0,0:0:0:0:
232,28,26246,2,0,L|120:64,1,95,0|8,0:0|0:0,0:0:0:0:
59,102,26791,6,0,B|39:130|35:190|51:206|83:234|91:242|147:246|147:246|171:318,1,285
272,320,27882,2,0,B|296:248|296:248|352:244|360:236|392:208|408:192|404:132|384:104,1,285,0|4,0:0|0:0,0:0:0:0:
303,54,28973,6,0,P|295:105|308:156,1,104.500003189087,4|8,0:0|0:0,0:0:0:0:
360,248,29519,2,0,P|372:298|364:349,1,104.500003189087,0|8,0:0|0:0,0:0:0:0:
260,360,30064,2,0,P|144:344|76:248,1,209.000006378174
80,172,30882,1,8,0:0:0:0:
156,244,31155,6,0,P|196:284|260:276,1,104.500003189087,0|8,0:0|0:0,0:0:0:0:
296,204,31700,2,0,P|346:212|381:249,1,104.500003189087,0|8,0:0|0:0,0:0:0:0:
456,324,32246,2,0,P|456:228|392:148,1,174.166671981812
384,152,32791,2,0,P|336:128|316:108,1,69.6666687927247,0|12,0:0|0:0,0:0:0:0:
316,84,33064,1,12,0:0:0:0:
208,54,33337,6,0,P|216:105|203:156,1,104.500003189087,4|8,0:0|0:0,0:0:0:0:
152,248,33883,2,0,P|139:298|147:349,1,104.500003189087,0|8,0:0|0:0,0:0:0:0:
252,360,34428,2,0,P|328:360|432:252,1,209.000006378174
432,172,35246,1,8,0:0:0:0:
356,244,35519,6,0,P|316:284|256:280,1,104.500003189087,0|8,0:0|0:0,0:0:0:0:
216,204,36064,2,0,P|165:212|130:249,1,104.500003189087,0|8,0:0|0:0,0:0:0:0:
56,324,36610,2,0,P|56:228|140:136,1,209.000006378174
200,112,37337,1,12,0:0:0:0:
200,112,37428,1,12,0:0:0:0:
312,136,37700,6,0,B|356:160|356:160|432:160,1,104.500003189087,4|8,0:0|0:0,0:0:0:0:
400,56,38246,2,0,B|356:32|356:32|280:32,1,104.500003189087,0|8,0:0|0:0,0:0:0:0:
215,96,38792,2,0,P|227:195|317:239,1,209.000006378174
424,244,39610,1,8,0:0:0:0:
376,336,39882,6,0,P|324:356|260:360,1,104.500003189087,0|8,0:0|0:0,0:0:0:0:
216,276,40428,2,0,P|164:281|115:300,1,104.500003189087,0|8,0:0|0:0,0:0:0:0:
20,260,40973,2,0,P|116:200|240:188,1,209.000006378174
312,176,41700,1,12,0:0:0:0:
312,176,41791,1,12,0:0:0:0:
404,128,42064,6,0,P|412:196|400:231,1,104.500003189087,4|8,0:0|0:0,0:0:0:0:
309,277,42610,2,0,P|299:226|312:176,1,104.500003189087,0|8,0:0|0:0,0:0:0:0:
340,76,43155,2,0,P|412:44|484:136,1,209.000006378174
488,236,43973,1,8,0:0:0:0:
468,340,44246,6,0,P|416:356|332:356,1,104.500003189087,4|8,0:0|0:0,0:0:0:0:
292,288,44791,2,0,P|240:292|190:307,1,104.500003189087,0|8,0:0|0:0,0:0:0:0:
92,284,45337,2,0,B|104:228|160:212|160:212|152:168|192:120|192:120|256:120|288:160|288:160|360:152|400:204,1,418.000012756348,12|4,0:0|0:0,0:0:0:0:
256,192,46700,12,12,48610,0:0:0:0:
136,56,52973,6,0,L|120:268,1,190,4|0,0:0|0:0,0:0:0:0:
200,280,53700,1,12,0:0:0:0:
200,280,53791,1,4,0:0:0:0:
312,244,54064,2,0,L|297:54,1,190,4|0,0:0|0:0,0:0:0:0:
376,92,54791,1,12,0:0:0:0:
376,92,54882,1,4,0:0:0:0:
396,216,55155,6,0,P|384:300|268:316,1,190,4|0,0:0|0:0,0:0:0:0:
256,240,55973,1,8,0:0:0:0:
218,328,56246,2,0,P|131:304|116:216,1,190
172,140,57064,1,8,0:0:0:0:
212,52,57337,6,0,P|156:48|100:76,2,95,0|8|0,0:0|0:0|0:0,0:0:0:0:
256,136,58155,1,8,0:0:0:0:
300,52,58428,2,0,P|356:48|412:76,2,95,0|8|0,0:0|0:0|0:0,0:0:0:0:
340,140,59246,1,8,0:0:0:0:
395,215,59519,6,0,B|380:312|380:312|356:352|300:376,1,190,4|0,0:0|0:0,0:0:0:0:
256,292,60337,1,8,0:0:0:0:
201,371,60609,2,0,B|156:352|132:312|132:312|116:215,1,190
172,140,61428,1,8,0:0:0:0:
256,96,61700,6,0,P|204:52|88:96,1,190
172,140,62428,1,8,0:0:0:0:
172,140,62519,1,8,0:0:0:0:
176,224,62700,1,8,0:0:0:0:
176,224,62791,1,8,0:0:0:0:
348,84,63337,1,8,0:0:0:0:
384,156,63519,1,12,0:0:0:0:
384,156,63610,1,12,0:0:0:0:
356,260,63882,6,0,B|312:272|312:272|248:272,1,104.500003189087,4|8,0:0|0:0,0:0:0:0:
192,188,64428,2,0,B|236:176|236:176|300:176,1,104.500003189087,0|8,0:0|0:0,0:0:0:0:
400,188,64973,2,0,P|432:228|336:344,1,209.000006378174
256,352,65791,1,8,0:0:0:0:
149,344,66064,6,0,P|76:279|112:188,1,209.000006378174
152,92,66882,1,8,0:0:0:0:
217,176,67155,2,0,B|276:176|276:176|320:188,1,104.500003189087,0|8,0:0|0:0,0:0:0:0:
258,272,67701,2,0,B|200:272|200:272|188:268,1,69.6666687927247,0|12,0:0|0:0,0:0:0:0:
160,248,67973,1,12,0:0:0:0:
88,180,68246,6,0,L|68:72,1,104.500003189087,4|8,0:0|0:0,0:0:0:0:
160,28,68791,2,0,L|180:136,1,104.500003189087,0|8,0:0|0:0,0:0:0:0:
256,200,69337,2,0,B|356:216|356:216|376:184|416:168|468:172,1,209.000006378174
440,276,70155,1,8,0:0:0:0:
449,380,70428,6,0,B|415:383|375:367|355:335|355:335|255:351,1,209.000006378174
152,332,71246,1,8,0:0:0:0:
64,272,71519,2,0,P|44:228|36:152,1,104.500003189087,0|8,0:0|0:0,0:0:0:0:
95,87,72064,2,0,P|117:135|124:184,1,69.6666687927247,0|12,0:0|0:0,0:0:0:0:
124,188,72337,1,12,0:0:0:0:
204,256,72610,6,0,P|272:264|307:252,1,104.500003189087,4|8,0:0|0:0,0:0:0:0:
353,161,73156,2,0,P|302:151|252:164,1,104.500003189087,0|8,0:0|0:0,0:0:0:0:
152,192,73701,2,0,P|120:264|212:336,1,209.000006378174
256,244,74428,1,12,0:0:0:0:
256,244,74519,1,12,0:0:0:0:
303,336,74791,6,0,P|386:285|360:192,1,209.000006378174,4|0,0:0|0:0,0:0:0:0:
292,112,75610,1,8,0:0:0:0:
188,100,75882,2,0,P|140:148|120:204,1,104.500003189087,0|8,0:0|0:0,0:0:0:0:
167,276,76428,2,0,P|195:254|216:226,1,69.6666687927247,0|12,0:0|0:0,0:0:0:0:
224,192,76700,1,12,0:0:0:0:
292,112,76973,6,0,B|344:100|344:100|416:100,1,104.500003189087,4|8,0:0|0:0,0:0:0:0:
460,184,77519,2,0,B|408:196|408:196|360:196,1,69.6666687927247,0|12,0:0|0:0,0:0:0:0:
355,195,77792,1,12,0:0:0:0:
252,200,78064,6,0,P|272:260|328:296,1,104.500003189087,4|8,0:0|0:0,0:0:0:0:
405,281,78610,2,0,P|399:247|381:218,1,69.6666687927247,0|12,0:0|0:0,0:0:0:0:
355,195,78882,1,12,0:0:0:0:
252,200,79155,6,0,B|200:200|200:200|140:164,1,104.500003189087,4|8,0:0|0:0,0:0:0:0:
128,72,79700,2,0,B|180:72|180:72|220:96,1,69.6666687927247,0|12,0:0|0:0,0:0:0:0:
224,100,79973,1,12,0:0:0:0:
324,140,80247,6,0,P|344:216|216:288,2,209.000006378174,12|4|4,0:0|0:0|0:0,0:0:0:0:
256,192,81610,12,0,83519,0:0:0:0:
