osu file format v5

[General]
AudioFilename: 08 Rooftop Run - Day.mp3
AudioLeadIn: 0
PreviewTime: -1
Countdown: 1
SampleSet: Normal
StackLeniency: 0.7
Mode: 0
LetterboxInBreaks: 1

[Metadata]
Title:Sonic Unleashed - Rooftop Run - Day
Artist:Tomoya Ohtani
Creator:supersonic001
Version:C-Rank
Source:Sonic Unleashed
Tags:Sonic Unleashed Rooftop Run Spagonia Day

[Difficulty]
HPDrainRate:5
CircleSize:5
OverallDifficulty:5
SliderMultiplier:0.5
SliderTickRate:1

[Events]
//Background and Video events
0,0,"spagonia_f.png"
//Break Periods
2,32831,42009
2,78142,87486
2,99464,109142
2,130116,140710
2,176760,186104
2,198165,207760
//Storyboard Layer 0 (Background)
//Storyboard Layer 1 (Failing)
//Storyboard Layer 2 (Passing)
//Storyboard Layer 3 (Foreground)
//Storyboard Sound Samples
//Background Colour Transformations
3,100,163,162,255

[TimingPoints]
11392.2147815247,333.166749958354,4,1,0,100,1,0

[HitObjects]
160,96,11308,1,0
160,192,12475,1,0
224,128,13807,1,0
320,128,14307,1,0
352,192,16639,5,0
352,96,17806,1,0
288,128,19138,1,0
192,128,19638,1,0
160,288,21970,5,0
160,192,23137,1,0
224,256,24469,1,0
320,256,24969,1,0
352,192,27301,5,0
352,288,28468,1,0
256,192,28966,12,0,32631
32,128,43292,5,0
160,128,44458,1,0
352,128,45958,5,0
480,128,47124,1,0
32,256,48623,5,0
160,256,49789,1,0
352,256,51289,5,0
480,256,52455,1,0
64,32,54287,5,8
64,96,54954,1,8
64,160,55620,1,8
64,224,56286,1,8
64,288,56953,5,8
64,352,57619,1,8
128,352,58285,1,8
128,288,58951,1,8
128,224,59618,5,8
128,160,60284,1,8
128,96,60950,1,8
128,32,61617,1,8
192,32,62283,5,8
192,96,62949,1,8
192,160,63616,1,8
192,224,64282,1,8
192,288,64948,5,2
192,352,65615,1,2
256,352,66281,1,2
256,288,66947,1,2
256,224,67614,5,2
256,160,68280,1,2
256,96,68946,1,2
256,32,69613,1,2
288,32,69946,6,2,B|352:32|352:352|288:352,1,350,2|0
256,192,72694,12,2,77942
160,192,88603,5,0
224,192,89770,1,0
288,192,91102,1,0
352,192,91602,1,0
256,160,93934,5,0
256,224,95101,1,0
256,192,95599,12,0,99264
32,192,110259,5,0
96,192,110925,1,0
160,192,111592,1,0
192,192,111925,1,0
224,192,112258,1,0
480,192,112924,5,2
416,192,113590,1,2
352,192,114257,1,2
320,192,114590,1,2
288,192,114923,1,2
256,0,115590,5,8
256,64,116256,1,8
256,128,116923,1,8
256,160,117256,1,8
256,192,117589,1,8
256,384,118255,5,4
256,320,118921,1,4
256,256,119588,1,4
256,224,119921,1,4
256,192,120254,1,4
192,128,120920,5,0
320,128,121586,1,0
256,96,122253,1,0
256,128,122586,1,0
256,160,122919,1,0
320,256,123585,5,2
192,256,124251,1,2
256,288,124918,1,2
256,256,125251,1,2
256,224,125584,1,2
256,192,126251,5,8
320,192,126917,1,8
320,128,127584,1,8
288,128,127917,1,8
256,128,128250,1,8
224,128,128583,5,4
224,160,128916,1,0
224,192,129249,1,4
256,192,129583,1,0
256,160,129916,1,4
480,256,141910,5,0
352,256,143076,1,0
160,256,144576,5,0
32,256,145742,1,0
480,128,147241,5,0
352,128,148407,1,0
160,128,149907,5,0
32,128,151073,1,0
448,352,152905,5,8
448,288,153572,1,8
448,224,154238,1,8
448,160,154904,1,8
448,96,155571,5,8
448,32,156237,1,8
384,32,156903,1,8
384,96,157569,1,8
384,160,158236,5,8
384,224,158902,1,8
384,288,159568,1,8
384,352,160235,1,8
320,352,160901,5,8
320,288,161567,1,8
320,224,162234,1,8
320,160,162900,1,8
320,96,163566,5,2
320,32,164233,1,2
256,32,164899,1,2
256,96,165565,1,2
256,160,166232,5,2
256,224,166898,1,2
256,288,167564,1,2
256,352,168231,1,2
224,352,168564,6,2,B|160:352|160:32|224:32,1,350,2|0
256,192,171312,12,2,176560
352,192,187304,5,0
288,192,188471,1,0
224,192,189803,1,0
160,192,190303,1,0
256,224,192635,5,0
256,160,193802,1,0
256,192,194300,12,0,197965
480,192,208960,5,0
416,192,209626,1,0
352,192,210293,1,0
320,192,210626,1,0
288,192,210959,1,0
32,192,211625,5,2
96,192,212291,1,2
160,192,212958,1,2
192,192,213291,1,2
224,192,213624,1,2
256,384,214291,5,8
256,320,214957,1,8
256,256,215624,1,8
256,224,215957,1,8
256,192,216290,1,8
256,0,216956,5,4
256,64,217622,1,4
256,128,218289,1,4
256,160,218622,1,4
256,192,218955,1,4
320,256,219621,5,0
192,256,220287,1,0
256,288,220954,1,0
256,256,221287,1,0
256,224,221620,1,0
192,128,222286,5,2
320,128,222952,1,2
256,96,223619,1,2
256,128,223952,1,2
256,160,224285,1,2
256,192,224952,5,8
192,192,225618,1,8
192,256,226285,1,8
224,256,226618,1,8
256,256,226951,1,8
288,256,227284,5,4
288,224,227617,1,0
288,192,227950,1,4
256,192,228284,1,0
256,224,228617,1,4
