osu file format v10

[General]
AudioFilename: Rooftop Run (Day).mp3
AudioLeadIn: 2387
PreviewTime: 10943
Countdown: 0
SampleSet: Normal
StackLeniency: 0.7
Mode: 0
LetterboxInBreaks: 0

[Editor]
Bookmarks: 279,10943,21607,32271,42936,53600,64264,72263,77595,88259,98923,109588,120252,130916,141580,152245,162909,170907
DistanceSpacing: 0.89
BeatDivisor: 4
GridSize: 16

[Metadata]
Title:Rooftop Run (Daytime)
TitleUnicode:Rooftop Run (Daytime)
Artist:Tomoya Ohtani
ArtistUnicode:Tomoya Ohtani
Creator:chaotic_iak
Version:Rooftop Rush (Insane)
Source:Sonic Unleashed
Tags:sonic unleashed spagonia qwertykool okamiratsu
BeatmapID:157097
BeatmapSetID:51116

[Difficulty]
HPDrainRate:8
CircleSize:5
OverallDifficulty:7
ApproachRate:8
SliderMultiplier:1.34
SliderTickRate:2

[Events]
//Background and Video events
0,0,"background.jpg"
//Break Periods
2,72463,76511
//Storyboard Layer 0 (Background)
//Storyboard Layer 1 (Fail)
//Storyboard Layer 2 (Pass)
//Storyboard Layer 3 (Foreground)
//Storyboard Sound Samples
//Background Colour Transformations
3,100,163,162,255

[TimingPoints]
279,333.259275716507,4,1,0,50,1,0
10943,-100,4,2,0,70,0,0
11109,-100,4,1,0,50,0,0
16275,-100,4,2,0,70,0,0
16442,-100,4,1,0,50,0,0
62098,-100,4,1,0,15,0,0
62265,-100,4,1,0,50,0,0
62765,-100,4,1,0,15,0,0
62931,-100,4,1,0,50,0,0
65597,-100,4,1,0,25,0,0
65764,-100,4,1,0,50,0,0
65931,-100,4,1,0,25,0,0
66097,-100,4,1,0,50,0,0
66430,-100,4,1,0,25,0,0
66597,-100,4,1,0,50,0,0
66764,-100,4,1,0,25,0,0
66930,-100,4,1,0,50,0,0
72263,-100,4,2,0,70,0,0
72429,-100,4,1,0,50,0,0
77595,-100,4,2,0,70,0,1
77761,-100,4,1,0,50,0,1
82927,-100,4,2,0,70,0,1
83093,-100,4,1,0,50,0,1
98923,-100,4,1,0,50,0,0
107755,-100,4,1,0,25,0,0
108088,-100,4,1,0,50,0,0
109588,-100,4,2,0,70,0,0
109754,-100,4,1,0,50,0,0
112254,-100,4,2,0,70,0,0
112420,-100,4,1,0,50,0,0
114920,-100,4,2,0,70,0,0
115086,-100,4,1,0,50,0,0
117586,-100,4,2,0,70,0,0
117752,-100,4,1,0,50,0,0
130250,-100,4,1,0,30,0,0
130916,-100,4,2,0,70,0,0
131083,-100,4,1,0,50,0,0
151745,-100,4,1,0,30,0,0
151911,-100,4,1,0,50,0,0
163909,-100,4,1,0,15,0,0
164075,-100,4,1,0,50,0,0
164242,-100,4,1,0,15,0,0
164409,-100,4,1,0,50,0,0
165075,-100,4,1,0,15,0,0
165242,-100,4,1,0,50,0,0
165408,-100,4,1,0,15,0,0
165575,-100,4,1,0,50,0,0
170241,-100,4,1,0,40,0,0
170907,-100,4,1,0,35,0,0
171574,-100,4,1,0,30,0,0
172240,-100,4,1,0,25,0,0
172907,-100,4,1,0,20,0,0
173573,-100,4,1,0,15,0,0

[Colours]
Combo1 : 255,192,124
Combo2 : 128,64,64
Combo3 : 255,128,64
Combo4 : 128,128,64

[HitObjects]
64,112,279,6,0,B|60:27|144:32,2,134
112,112,1112,1,8,0:0:0
64,160,1445,2,0,B|112:160|137:192|112:224|64:224,1,134
64,272,1945,2,0,B|60:357|144:352,2,134,0|0|8,0:0|0:0|0:0,0:0:0
192,272,2945,6,0,B|188:357|272:352,2,134
240,272,3778,1,8,0:0:0
192,224,4111,2,0,B|240:224|265:192|240:160|192:160,1,134
192,112,4611,2,0,B|192:64|240:64,4,67,0|0|0|0|8,0:0|0:0|0:0|0:0|0:0,0:0:0
144,152,5444,1,0,0:0:0
96,192,5611,6,0,B|96:288|163:288,1,134,2|0,0:0|0:0,0:0:0
224,288,6111,2,0,B|288:288|288:188,1,134,2|0,0:0|0:0,0:0:0
288,128,6610,2,0,B|288:32|355:32,1,134,2|0,0:0|0:0,0:0:0
416,32,7110,1,8,0:0:0
459,72,7277,1,8,0:0:0
479,128,7444,1,8,0:0:0
469,186,7610,1,8,0:0:0
448,304,7943,1,8,0:0:0
416,192,8277,6,0,B|416:288|349:288,1,134,2|0,0:0|0:0,0:0:0
288,288,8777,2,0,B|224:288|224:188,1,134,2|0,0:0|0:0,0:0:0
224,128,9277,2,0,B|224:32|157:32,1,134,2|0,0:0|0:0,0:0:0
96,32,9776,1,8,0:0:0
53,72,9943,1,8,0:0:0
33,128,10110,1,8,0:0:0
43,186,10276,1,8,0:0:0
106,286,10610,1,8,0:0:0
120,281,10693,1,0,0:0:0
130,270,10776,1,8,0:0:0
125,255,10859,1,0,0:0:0
112,240,10943,6,0,B|32:240|64:336,2,134,4|0|0,0:0|0:0|0:0,0:0:0
163,223,11776,1,0,0:0:0
168,163,11943,1,0,0:0:0
112,144,12109,2,0,B|32:144|64:48,2,134,10|0|0,0:0|0:0|0:0,0:0:0
229,167,13109,1,0,0:0:0
203,221,13276,1,0,0:0:0
153,253,13442,1,0,0:0:0
96,272,13609,6,0,B|96:320|128:336,1,67
176,336,13942,2,0,B|224:336|240:304,1,67,8|0,0:0|0:0,0:0:0
240,256,14275,2,0,B|240:208|272:192,1,67
320,192,14609,2,0,B|368:192|384:224,1,67,8|0,0:0|0:0,0:0:0
400,272,14942,2,0,B|400:304|368:336,2,67,0|0|8,0:0|0:0|0:0,0:0:0
429,219,15442,1,0,0:0:0
480,128,15775,1,8,0:0:0
488,69,15942,1,8,0:0:0
400,144,16275,6,0,B|480:144|448:48,2,134,4|0|0,0:0|0:0|0:0,0:0:0
349,161,17108,1,0,0:0:0
344,221,17275,1,0,0:0:0
400,240,17441,2,0,B|480:240|448:336,2,134,10|0|0,0:0|0:0|0:0,0:0:0
283,217,18441,1,0,0:0:0
309,163,18608,1,0,0:0:0
359,131,18774,1,0,0:0:0
416,112,18941,6,0,B|416:64|384:48,1,67
336,48,19274,2,0,B|288:48|272:80,1,67,8|0,0:0|0:0,0:0:0
272,128,19608,2,0,B|272:176|240:192,1,67
192,192,19941,2,0,B|144:192|128:160,1,67,8|0,0:0|0:0,0:0:0
112,112,20274,2,0,B|112:80|144:48,2,67,0|0|8,0:0|0:0|0:0,0:0:0
83,165,20774,1,0,0:0:0
32,256,21107,1,8,0:0:0
77,295,21274,1,8,0:0:0
84,307,21357,1,0,0:0:0
95,316,21440,1,8,0:0:0
107,324,21524,1,0,0:0:0
128,336,21607,6,0,B|272:336,2,134,2|0|0,0:0|0:0|0:0,0:0:0
172,296,22440,1,0,0:0:0
187,238,22607,1,0,0:0:0
128,224,22774,2,0,B|128:80,2,134,8|0|0,0:0|0:0|0:0,0:0:0
56,316,23773,2,0,B|56:348|120:348,2,67
37,260,24273,5,0,0:0:0
53,202,24440,1,0,0:0:0
90,155,24606,1,8,0:0:0
141,124,24773,1,0,0:0:0
200,131,24940,1,0,0:0:0
248,165,25106,1,0,0:0:0
286,209,25273,1,8,0:0:0
331,248,25440,1,0,0:0:0
390,242,25606,1,0,0:0:0
439,208,25773,1,0,0:0:0
464,154,25939,1,8,0:0:0
454,95,26106,1,0,0:0:0
334,99,26439,1,8,0:0:0
346,157,26606,1,8,0:0:0
384,48,26939,6,0,B|240:48,2,134,2|0|0,0:0|0:0|0:0,0:0:0
340,88,27772,1,0,0:0:0
325,146,27939,1,0,0:0:0
384,160,28106,2,0,B|384:304,2,134,8|0|0,0:0|0:0|0:0,0:0:0
456,68,29105,2,0,B|456:36|392:36,2,67
464,128,29605,2,0,B|480:208|416:256,1,134,0|8,0:0|0:0,0:0:0
272,336,30272,2,0,B|208:368|128:272,1,134,0|8,0:0|0:0,0:0:0
112,128,30938,2,0,B|112:32|224:96,1,134,0|8,0:0|0:0,0:0:0
272,176,31605,5,8,0:0:0
278,192,31688,1,0,0:0:0
272,208,31772,1,2,0:0:0
256,214,31855,1,0,0:0:0
240,208,31938,1,8,0:0:0
233,192,32021,1,0,0:0:0
240,176,32105,1,2,0:0:0
256,169,32188,1,0,0:0:0
256,144,32271,6,0,B|304:112|384:112|400:192|384:272|304:272|256:240,1,268,12|0,0:0|0:0,0:0:0
288,304,33105,1,0,0:0:0
224,304,33271,1,0,0:0:0
256,240,33438,2,0,B|208:272|128:272|112:192|128:112|208:112|272:80|208:48,1,335,0|0,0:0|0:0,0:0:0
80,48,34604,1,0,0:0:0
112,96,34771,1,0,0:0:0
144,144,34937,6,0,B|96:192|112:336|240:336,1,268,8|0,0:0|0:0,0:0:0
224,272,35771,1,0,0:0:0
288,272,35937,1,0,0:0:0
272,336,36104,2,0,B|400:336|416:192|400:48|304:0|240:144,1,469,0|0,0:0|0:0,0:0:0
112,80,37604,6,0,B|177:64|177:64|192:129|192:129|127:144|127:144|145:211,1,268,8|0,0:0|0:0,0:0:0
208,224,38437,1,0,0:0:0
256,256,38603,1,0,0:0:0
304,224,38770,2,0,B|369:209|369:209|384:144|384:144|318:126|318:126|336:62|336:62|400:80,1,335
438,193,39936,1,0,0:0:0
403,144,40103,1,0,0:0:0
352,112,40270,6,0,B|304:48|208:48|256:112|304:176|208:176|160:112,1,268,8|0,0:0|0:0,0:0:0
106,132,41103,1,0,0:0:0
72,83,41270,1,0,0:0:0
112,48,41436,2,0,B|192:48|224:112,3,134
163,114,42602,1,8,0:0:0
147,113,42686,1,0,0:0:0
132,108,42769,1,8,0:0:0
118,100,42852,1,0,0:0:0
96,96,42936,6,0,B|64:144|64:240|96:288,1,201,2|0,0:0|0:0,0:0:0
160,288,43602,2,0,B|240:288,1,67
96,288,44102,2,0,B|128:240|128:144|96:96|96:96|160:96|256:128|256:192,1,402,8|0,0:0|0:0,0:0:0
160,112,45602,6,0,B|208:48|304:48|256:112|208:176|304:176|352:112,1,268,2|0,0:0|0:0,0:0:0
406,132,46435,1,0,0:0:0
440,83,46602,1,0,0:0:0
400,48,46768,2,0,B|320:48|288:112,4,134,8|0|0|0|0,0:0|0:0|0:0|0:0|0:0,0:0:0
416,96,48268,6,0,B|448:144|448:240|416:288,1,201,2|0,0:0|0:0,0:0:0
352,288,48934,2,0,B|272:288,1,67
416,288,49434,2,0,B|384:240|384:144|416:96|416:96|352:96|256:128|256:192,1,402,8|0,0:0|0:0,0:0:0
112,336,50934,6,0,B|192:304|160:224,1,134,8|0,0:0|0:0,0:0:0
400,48,51600,2,0,B|320:80|352:160,1,134,8|0,0:0|0:0,0:0:0
112,48,52266,2,0,B|192:80|160:160,1,134,8|0,0:0|0:0,0:0:0
400,336,52933,1,8,0:0:0
336,288,53100,1,0,0:0:0
319,304,53183,1,0,0:0:0
311,281,53267,1,8,0:0:0
252,273,53433,1,0,0:0:0
208,224,53600,5,0,0:0:0
208,160,53767,1,8,0:0:0
256,128,53934,1,0,0:0:0
304,160,54100,1,8,0:0:0
352,192,54267,1,0,0:0:0
304,224,54433,1,8,0:0:0
256,192,54600,1,0,0:0:0
256,256,54767,1,10,0:0:0
160,112,55100,1,8,0:0:0
352,112,55433,1,8,0:0:0
256,304,55766,1,8,0:0:0
256,304,55933,1,2,0:0:0
96,192,56266,5,0,0:0:0
128,144,56433,1,8,0:0:0
160,192,56600,1,0,0:0:0
192,240,56766,1,8,0:0:0
224,192,56933,1,0,0:0:0
192,144,57100,1,8,0:0:0
128,240,57433,1,10,0:0:0
384,240,57766,1,8,0:0:0
352,192,57933,1,0,0:0:0
384,144,58099,1,8,0:0:0
416,192,58266,1,8,0:0:0
288,192,58599,1,2,0:0:0
256,272,58932,6,0,B|256:352,4,67,0|8|0|8|0,0:0|0:0|0:0|0:0|0:0,0:0:0
304,336,59766,1,8,0:0:0
256,208,60099,1,10,0:0:0
224,96,60432,2,0,B|224:48|272:48,2,67,8|0|8,0:0|0:0|0:0,0:0:0
160,96,60932,1,8,0:0:0
352,96,61265,1,2,0:0:0
224,128,61598,6,0,B|160:128|144:192|160:256|224:256,1,201,8|0,0:0|0:0,0:0:0
288,256,62265,2,0,B|352:256|368:192|352:128|288:128,1,201,8|0,0:0|0:0,0:0:0
256,192,62931,2,0,B|112:192,3,134,8|8|8|10,0:0|0:0|0:0|0:0,0:0:0
96,80,64264,5,0,0:0:0
144,64,64431,1,8,0:0:0
128,112,64598,1,0,0:0:0
176,96,64764,1,8,0:0:0
160,144,64931,1,0,0:0:0
208,128,65097,1,8,0:0:0
192,176,65264,1,0,0:0:0
240,160,65431,2,0,B|288:144|272:192,1,67,10|0,0:0|0:0,0:0:0
224,208,65764,2,0,B|208:256|256:240,1,67,8|0,0:0|0:0,0:0:0
304,224,66097,1,8,0:0:0
288,272,66264,2,0,B|272:320|320:304,1,67,8|0,0:0|0:0,0:0:0
336,256,66597,2,0,B|384:240|368:288,1,67,2|0,0:0|0:0,0:0:0
416,320,66930,5,8,0:0:0
416,192,67264,1,2,0:0:0
416,64,67597,1,8,0:0:0
368,64,67764,1,8,0:0:0
256,64,68097,1,2,0:0:0
256,144,68430,6,0,B|256:192|304:192,2,67,0|8|0,0:0|0:0|0:0,0:0:0
315,132,68930,1,10,0:0:0
226,212,69263,1,10,0:0:0
160,96,69596,6,0,B|80:112|63:192|80:272|160:288,1,268,4|0,0:0|0:0,0:0:0
224,288,70430,1,8,0:0:0
288,288,70596,1,8,0:0:0
352,288,70763,2,0,B|432:272|449:192|432:112|352:96|352:96|272:96,1,335,4|0,0:0|0:0,0:0:0
256,288,71929,1,8,0:0:0
256,192,72263,5,4,0:0:0
92,102,77261,5,8,0:0:0
101,90,77345,1,0,0:0:0
100,75,77428,1,8,0:0:0
90,63,77511,1,0,0:0:0
64,64,77595,5,4,0:0:0
64,192,77928,1,0,0:0:0
64,320,78261,1,0,0:0:0
128,320,78428,2,0,B|160:304|176:272,2,67,0|0|8,0:0|0:0|0:0,0:0:0
128,192,79094,1,0,0:0:0
128,64,79428,1,0,0:0:0
256,192,79761,5,0,0:0:0
256,256,79927,1,8,0:0:0
256,320,80094,1,0,0:0:0
320,320,80261,1,0,0:0:0
384,320,80427,2,0,B|464:320,2,67,0|8|0,0:0|0:0|0:0,0:0:0
384,256,80927,2,0,B|304:256,2,67,0|0|8,0:0|0:0|0:0,0:0:0
384,192,81427,2,0,B|464:192,2,67,0|0|0,0:0|0:0|0:0,0:0:0
384,128,81927,2,0,B|304:128,1,67,8|0,0:0|0:0,0:0:0
384,64,82427,2,0,B|464:64,1,67,8|8,0:0|0:0,0:0:0
448,64,82927,5,4,0:0:0
448,192,83260,1,0,0:0:0
448,320,83593,1,0,0:0:0
384,320,83760,2,0,B|352:304|336:272,2,67,0|0|8,0:0|0:0|0:0,0:0:0
384,192,84426,1,0,0:0:0
384,64,84760,1,0,0:0:0
256,192,85093,5,0,0:0:0
256,256,85260,1,8,0:0:0
256,320,85426,1,0,0:0:0
192,320,85593,1,0,0:0:0
128,320,85759,2,0,B|48:320,2,67,0|8|0,0:0|0:0|0:0,0:0:0
128,256,86259,2,0,B|208:256,2,67,0|0|8,0:0|0:0|0:0,0:0:0
128,192,86759,2,0,B|48:192,2,67
128,128,87259,2,0,B|208:128,1,67,8|0,0:0|0:0,0:0:0
128,64,87759,2,0,B|48:64,1,67,8|8,0:0|0:0,0:0:0
46,69,88009,1,0,0:0:0
36,81,88092,1,0,0:0:0
34,96,88176,1,0,0:0:0
256,192,88259,12,0,90259,0:0:0
256,304,90425,5,0,0:0:0
288,247,90592,1,8,0:0:0
224,247,90758,1,0,0:0:0
192,192,90925,1,0,0:0:0
224,136,91092,1,0,0:0:0
288,136,91258,1,2,0:0:0
320,192,91425,1,0,0:0:0
256,192,91592,12,0,93591,0:0:0
160,128,94424,5,0,0:0:0
192,80,94591,1,0,0:0:0
224,131,94758,2,0,B|192:192|192:192|222:249|222:249|289:250|289:250|320:192|320:192|287:132,1,335,2|0,0:0|0:0,0:0:0
256,80,95757,1,0,0:0:0
192,80,95924,1,0,0:0:0
160,128,96091,1,0,0:0:0
128,192,96257,6,0,B|160:224|256:224|256:224|352:224|384:192,2,268,2|2|2,0:0|0:0|0:0,0:0:0
272,166,98257,5,8,0:0:0
278,150,98340,1,0,0:0:0
272,134,98424,1,2,0:0:0
256,128,98507,1,0,0:0:0
240,134,98590,1,8,0:0:0
233,150,98673,1,0,0:0:0
240,166,98757,1,2,0:0:0
256,173,98840,1,0,0:0:0
256,192,98923,5,0,0:0:0
128,192,99257,1,0,0:0:0
128,320,99590,2,0,B|208:320,1,67,2|0,0:0|0:0,0:0:0
192,192,100090,1,0,0:0:0
192,64,100423,2,0,B|112:64,3,67,0|0|0|2,0:0|0:0|0:0|0:0,0:0:0
128,192,101256,1,0,0:0:0
256,192,101589,5,0,0:0:0
256,64,101923,1,0,0:0:0
256,192,102256,1,2,0:0:0
256,256,102422,1,0,0:0:0
384,256,102756,1,0,0:0:0
384,128,103089,5,2,0:0:0
320,128,103256,1,2,0:0:0
320,64,103422,1,2,0:0:0
384,64,103589,1,2,0:0:0
448,64,103756,1,0,0:0:0
448,128,103922,1,2,0:0:0
448,192,104089,1,0,0:0:0
384,192,104255,5,0,0:0:0
356,230,104422,1,0,0:0:0
347,249,104505,1,0,0:0:0
329,233,104589,1,8,0:0:0
289,266,104755,1,0,0:0:0
278,287,104839,1,0,0:0:0
259,272,104922,1,2,0:0:0
224,239,105089,1,0,0:0:0
200,239,105172,1,0,0:0:0
206,216,105255,1,8,0:0:0
179,176,105422,1,0,0:0:0
155,174,105505,1,0,0:0:0
164,152,105588,5,2,0:0:0
206,131,105755,1,0,0:0:0
211,108,105838,1,0,0:0:0
232,118,105922,1,8,0:0:0
278,112,106088,1,0,0:0:0
292,93,106172,1,0,0:0:0
305,111,106255,1,2,0:0:0
342,139,106422,1,0,0:0:0
365,140,106505,1,0,0:0:0
357,162,106588,1,8,0:0:0
371,206,106755,1,0,0:0:0
390,219,106838,1,0,0:0:0
369,230,106921,5,2,0:0:0
288,320,107255,2,0,B|256:288|256:256,1,67
128,256,107755,1,0,0:0:0
128,192,107921,1,0,0:0:0
192,192,108088,1,8,0:0:0
64,192,108421,1,8,0:0:0
64,128,108588,1,8,0:0:0
128,128,108754,1,8,0:0:0
128,64,108921,1,8,0:0:0
256,64,109254,1,10,0:0:0
256,192,109588,5,4,0:0:0
220,239,109754,2,0,B|217:287|183:308,1,67,0|8,0:0|0:0,0:0:0
146,333,110087,2,0,B|104:344|83:309,1,67
61,259,110421,2,0,B|39:233|83:220|75:192,1,67,0|8,0:0|0:0,0:0:0
87,140,110754,2,0,B|85:99|120:79,1,67
172,71,111087,2,0,B|224:62|221:118,1,67,0|8,0:0|0:0,0:0:0
230,162,111420,2,0,B|249:216|294:216,1,67
326,236,111754,2,0,B|373:264|369:312,1,67,0|10,0:0|0:0,0:0:0
404,334,112087,6,0,B|430:364|471:351|468:302,1,67,0|4,0:0|0:0,0:0:0
466,276,112420,2,0,B|491:222|464:204,1,67,0|8,0:0|0:0,0:0:0
434,165,112754,2,0,B|394:160|426:124|401:108,1,67
353,84,113087,2,0,B|316:71|293:96|301:126,1,67,0|8,0:0|0:0,0:0:0
323,162,113420,2,0,B|360:197|350:231,1,67
323,272,113753,2,0,B|279:312|241:279,1,67,0|8,0:0|0:0,0:0:0
203,277,114087,2,0,B|164:257|159:222,1,67
158,168,114420,2,0,B|197:129|235:148,1,67,0|10,0:0|0:0,0:0:0
256,192,114753,1,0,0:0:0
256,240,114920,5,4,0:0:0
304,240,115086,1,0,0:0:0
304,288,115253,1,8,0:0:0
352,288,115420,1,0,0:0:0
352,240,115586,1,0,0:0:0
400,240,115753,1,0,0:0:0
400,192,115919,1,8,0:0:0
352,192,116086,1,0,0:0:0
352,144,116253,1,0,0:0:0
304,144,116419,1,0,0:0:0
304,192,116586,1,8,0:0:0
256,192,116753,1,0,0:0:0
256,144,116919,1,0,0:0:0
208,144,117086,1,0,0:0:0
208,96,117253,1,10,0:0:0
160,96,117419,1,0,0:0:0
160,48,117586,5,4,0:0:0
112,48,117752,1,0,0:0:0
112,96,117919,1,8,0:0:0
64,96,118086,1,0,0:0:0
64,144,118252,1,0,0:0:0
112,144,118419,1,0,0:0:0
112,192,118586,1,8,0:0:0
160,192,118752,1,0,0:0:0
160,240,118919,1,0,0:0:0
208,240,119085,1,0,0:0:0
208,288,119252,1,8,0:0:0
256,288,119419,1,0,0:0:0
256,240,119585,1,0,0:0:0
304,240,119752,1,0,0:0:0
304,192,119919,1,10,0:0:0
291,184,120002,1,0,0:0:0
277,178,120085,1,0,0:0:0
263,184,120169,1,0,0:0:0
256,192,120252,12,0,122251,0:0:0
86,122,122751,5,0,0:0:0
86,241,123085,2,0,B|59:290|92:311,2,67,0|8|0,0:0|0:0|0:0,0:0:0
143,224,123584,2,0,B|170:175|137:154,2,67,0|0|8,0:0|0:0|0:0,0:0:0
148,283,124084,1,0,0:0:0
203,304,124251,1,0,0:0:0
255,275,124418,1,0,0:0:0
255,215,124584,1,8,0:0:0
201,188,124751,1,0,0:0:0
256,80,125084,2,0,B|256:160,1,67,8|2,0:0|0:0,0:0:0
480,128,125584,5,0,0:0:0
448,64,125751,1,8,0:0:0
384,32,125917,1,0,0:0:0
320,64,126084,1,8,0:0:0
288,128,126251,1,0,0:0:0
320,192,126418,1,8,0:0:0
352,256,126584,1,0,0:0:0
320,320,126751,1,2,0:0:0
256,352,126917,5,0,0:0:0
192,320,127084,1,8,0:0:0
160,256,127250,1,0,0:0:0
192,192,127417,1,8,0:0:0
224,128,127584,1,0,0:0:0
192,64,127751,1,8,0:0:0
128,32,127917,1,0,0:0:0
64,64,128084,1,2,0:0:0
32,128,128250,5,0,0:0:0
64,192,128417,1,8,0:0:0
128,224,128583,1,0,0:0:0
192,192,128750,1,2,0:0:0
256,160,128917,5,0,0:0:0
268,186,129000,1,0,0:0:0
238,187,129083,1,8,0:0:0
268,238,129250,1,0,0:0:0
238,239,129333,1,0,0:0:0
253,264,129416,1,2,0:0:0
252,323,129583,1,2,0:0:0
368,80,130250,5,0,0:0:0
362,64,130333,1,8,0:0:0
368,48,130416,1,0,0:0:0
384,41,130499,1,2,0:0:0
400,48,130583,1,0,0:0:0
407,64,130666,1,8,0:0:0
400,80,130749,1,0,0:0:0
384,86,130832,1,2,0:0:0
384,128,130916,6,0,B|432:160|384:192|384:192|336:224|384:256|384:256|432:288|384:320|384:320|336:352,1,268,4|0,0:0|0:0,0:0:0
336,288,131749,1,0,0:0:0
304,336,131916,1,0,0:0:0
272,288,132083,2,0,B|224:256|272:224|272:224|320:192|272:160|272:160|224:128|272:96|272:96|320:64|272:32|272:32|224:0,1,335
128,32,133249,1,0,0:0:0
96,80,133416,1,0,0:0:0
128,128,133582,2,0,B|80:160|128:192|128:192|176:224|128:256|128:256|80:288|128:320|128:320|176:352,1,268,8|0,0:0|0:0,0:0:0
176,288,134415,1,0,0:0:0
208,336,134582,1,0,0:0:0
240,288,134749,2,0,B|288:256|240:224|240:224|192:192|240:160|240:160|288:128|240:96|240:96|192:64,2,268
256,336,136248,6,0,B|352:336|352:176|352:112,1,268,8|0,0:0|0:0,0:0:0
352,48,137081,1,0,0:0:0
416,48,137248,1,0,0:0:0
416,112,137415,2,0,B|416:176|416:336|320:336|240:336,1,335
256,208,138581,5,0,0:0:0
256,272,138748,1,0,0:0:0
256,336,138914,2,0,B|160:336|160:176|160:112,1,268,8|0,0:0|0:0,0:0:0
160,48,139747,1,0,0:0:0
96,48,139914,1,0,0:0:0
96,112,140081,2,0,B|96:176|96:336|192:336|192:336|192:192,1,402
218,148,141247,1,8,0:0:0
212,134,141330,1,0,0:0:0
200,124,141414,1,8,0:0:0
186,118,141497,1,0,0:0:0
160,112,141580,6,0,B|360:112,1,201,2|0,0:0|0:0,0:0:0
416,112,142247,1,0,0:0:0
416,176,142414,1,0,0:0:0
304,176,142747,2,0,B|169:176|169:176|169:241|169:241|304:241,1,335,8|0,0:0|0:0,0:0:0
304,304,143747,2,0,B|172:303,1,134
112,304,144247,6,0,B|112:102|112:102|177:102,1,268,2|0,0:0|0:0,0:0:0
239,101,145080,2,0,B|304:101,1,67
304,160,145413,2,0,B|170:160|170:160|170:294|170:294|305:294|305:294|305:228|305:228|238:228,1,536,8|0,0:0|0:0,0:0:0
178,225,146913,5,2,0:0:0
118,219,147079,1,0,0:0:0
63,194,147246,1,0,0:0:0
31,143,147412,1,0,0:0:0
39,83,147579,1,0,0:0:0
86,46,147746,1,0,0:0:0
144,37,147912,1,0,0:0:0
203,44,148079,1,8,0:0:0
259,64,148246,1,0,0:0:0
305,100,148412,1,0,0:0:0
342,146,148579,1,0,0:0:0
364,201,148746,1,0,0:0:0
369,260,148912,1,0,0:0:0
360,319,149079,1,0,0:0:0
318,361,149245,1,0,0:0:0
258,366,149412,1,0,0:0:0
199,353,149579,5,2,0:0:0
162,306,149745,1,0,0:0:0
144,248,149912,1,0,0:0:0
142,188,150079,1,0,0:0:0
170,135,150245,1,0,0:0:0
205,86,150412,1,0,0:0:0
253,52,150578,1,0,0:0:0
311,39,150745,1,8,0:0:0
370,37,150912,1,0,0:0:0
427,50,151078,1,0,0:0:0
473,87,151245,1,0,0:0:0
472,146,151412,1,0,0:0:0
434,191,151578,1,0,0:0:0
379,216,151745,1,0,0:0:0
349,215,151828,1,0,0:0:0
319,210,151911,1,8,0:0:0
261,194,152078,1,0,0:0:0
256,128,152245,6,0,B|336:128,6,67,0|8|0|8|0|8|0,0:0|0:0|0:0|0:0|0:0|0:0|0:0,0:0:0
192,128,153411,2,0,B|48:128,3,134,2|8|8|8,0:0|0:0|0:0|0:0,0:0:0
96,176,154578,1,2,0:0:0
256,256,154911,6,0,B|176:256,4,67,0|8|0|8|0,0:0|0:0|0:0|0:0|0:0,0:0:0
320,256,155744,2,0,B|464:256,2,134,8|8|8,0:0|0:0|0:0,0:0:0
320,320,156577,2,0,B|464:320,2,134,0|8|2,0:0|0:0|0:0,0:0:0
256,192,157577,6,0,B|256:272,4,67,0|8|0|8|0,0:0|0:0|0:0|0:0|0:0,0:0:0
192,192,158410,2,0,B|160:96|256:128,1,134,8|2,0:0|0:0,0:0:0
256,256,159077,2,0,B|256:176,3,67,8|0|8|8,0:0|0:0|0:0|0:0,0:0:0
256,64,159910,1,2,0:0:0
176,192,160243,5,0,0:0:0
112,192,160410,2,0,B|256:192,1,134,8|2,0:0|0:0,0:0:0
336,192,160909,1,0,0:0:0
400,192,161076,2,0,B|256:192,1,134,8|2,0:0|0:0,0:0:0
256,112,161576,1,0,0:0:0
256,48,161743,2,0,B|256:192,1,134,8|2,0:0|0:0,0:0:0
304,288,162243,1,0,0:0:0
256,336,162409,1,8,0:0:0
217,290,162576,1,2,0:0:0
228,280,162659,1,0,0:0:0
241,274,162742,1,8,0:0:0
253,265,162826,1,0,0:0:0
259,251,162909,5,0,0:0:0
201,232,163076,1,8,0:0:0
159,189,163242,1,0,0:0:0
138,132,163409,1,8,0:0:0
183,92,163576,1,0,0:0:0
240,107,163742,2,0,B|232:172,1,67,8|0,0:0|0:0,0:0:0
255,231,164075,2,0,B|288:175,1,67,10|0,0:0|0:0,0:0:0
294,113,164409,1,8,0:0:0
351,96,164575,1,0,0:0:0
391,139,164742,1,8,0:0:0
369,194,164909,2,0,B|320:241,1,67,8|0,0:0|0:0,0:0:0
271,274,165242,2,0,B|256:338,1,67,2|0,0:0|0:0,0:0:0
192,336,165575,5,0,0:0:0
320,336,165908,1,8,0:0:0
112,192,166242,1,0,0:0:0
112,192,166408,1,0,0:0:0
400,192,166742,1,8,0:0:0
32,48,167075,1,0,0:0:0
32,48,167241,1,0,0:0:0
32,48,167408,1,0,0:0:0
32,48,167575,1,0,0:0:0
480,48,167908,1,10,0:0:0
256,352,168241,5,2,0:0:0
160,64,169074,5,8,0:0:0
256,192,169241,5,8,0:0:0
352,64,169408,5,2,0:0:0
32,304,170574,5,8,0:0:0
480,304,170907,1,6,0:0:0
256,192,171074,12,0,175573,0:0:0
