osu file format v10

[General]
AudioFilename: Rooftop Run (Day).mp3
AudioLeadIn: 0
PreviewTime: 10943
Countdown: 1
SampleSet: Normal
StackLeniency: 0.7
Mode: 0
LetterboxInBreaks: 0

[Editor]
Bookmarks: 279,10943,21607,32271,42936,53600,64264,72263,77595,88259,98923,109588,120252,130916,141580,152245,162909,170907
DistanceSpacing: 1
BeatDivisor: 2
GridSize: 16

[Metadata]
Title:Rooftop Run (Daytime)
TitleUnicode:Rooftop Run (Daytime)
Artist:Tomoya Ohtani
ArtistUnicode:Tomoya Ohtani
Creator:chaotic_iak
Version:Rooftop Jog (Normal)
Source:Sonic Unleashed
Tags:sonic unleashed spagonia qwertykool okamiratsu
BeatmapID:159610
BeatmapSetID:51116

[Difficulty]
HPDrainRate:3
CircleSize:4
OverallDifficulty:3
ApproachRate:5
SliderMultiplier:0.96
SliderTickRate:1

[Events]
//Background and Video events
0,0,"background.jpg"
//Break Periods
2,32471,41736
2,64464,68396
2,109788,119052
//Storyboard Layer 0 (Background)
//Storyboard Layer 1 (Fail)
//Storyboard Layer 2 (Pass)
//Storyboard Layer 3 (Foreground)
//Storyboard Sound Samples
//Background Colour Transformations
3,100,163,162,255

[TimingPoints]
279,333.259275716507,4,1,0,50,1,0
77595,-100,4,1,0,50,0,1
98923,-100,4,1,0,30,0,0
109588,-100,4,1,0,50,0,0
170241,-100,4,1,0,40,0,0
170907,-100,4,1,0,35,0,0
171574,-100,4,1,0,30,0,0
172240,-100,4,1,0,25,0,0
172907,-100,4,1,0,20,0,0
173573,-100,4,1,0,15,0,0

[Colours]
Combo1 : 255,192,124
Combo2 : 128,64,64
Combo3 : 255,128,64
Combo4 : 128,128,64

[HitObjects]
128,256,10943,2,0,B|160:320|176:256|192:144|208:256|224:320|256:256,1,192,2|0,0:0|0:0,0:0:0
320,192,11943,1,0,0:0:0
384,128,12276,2,0,B|352:64|336:128|320:240|304:128|288:64|256:128,1,192
192,192,13276,1,0,0:0:0
96,192,13609,2,0,B|96:96,1,96,8|0,0:0|0:0,0:0:0
192,96,14275,2,0,B|288:96,1,96,8|0,0:0|0:0,0:0:0
384,96,14942,2,0,B|384:192,1,96,8|0,0:0|0:0,0:0:0
480,192,15608,2,0,B|480:272|464:368,1,96,8|0,0:0|0:0,0:0:0
384,256,16275,6,0,B|352:320|336:256|320:144|304:256|288:320|256:256,1,192,2|0,0:0|0:0,0:0:0
192,192,17275,1,0,0:0:0
128,128,17608,2,0,B|160:64|176:128|192:240|208:128|224:64|256:128,1,192
320,192,18608,1,0,0:0:0
416,192,18941,2,0,B|416:96,1,96,8|0,0:0|0:0,0:0:0
320,96,19607,2,0,B|224:96,1,96,8|0,0:0|0:0,0:0:0
128,96,20274,2,0,B|128:192,1,96,8|0,0:0|0:0,0:0:0
32,192,20941,2,0,B|32:272|48:368,1,96,8|0,0:0|0:0,0:0:0
112,320,21607,5,2,0:0:0
112,224,21940,1,0,0:0:0
112,128,22274,2,0,B|208:128,1,96
208,32,22940,1,0,0:0:0
304,32,23273,1,0,0:0:0
400,32,23607,2,0,B|400:128,1,96
480,176,24273,6,0,B|400:272|320:176,3,192,8|8|8|8,0:0|0:0|0:0|0:0,0:0:0
304,80,26606,1,0,0:0:0
400,64,26939,5,2,0:0:0
400,160,27272,1,0,0:0:0
400,256,27606,2,0,B|304:256,1,96
304,352,28272,1,0,0:0:0
208,352,28605,1,0,0:0:0
112,352,28939,2,0,B|112:256,1,96
32,208,29605,6,0,B|112:112|192:208,4,192,8|8|8|8|4,0:0|0:0|0:0|0:0|0:0,0:0:0
64,128,42936,6,0,B|80:80|128:22|176:80|192:128,1,192,2|0,0:0|0:0,0:0:0
128,192,43935,1,0,0:0:0
64,256,44269,2,0,B|80:304|128:362|176:304|192:256,1,192
256,192,45268,1,0,0:0:0
304,112,45602,6,0,B|240:128|240:48,1,96,8|0,0:0|0:0,0:0:0
336,80,46268,2,0,B|288:16|368:0,1,96,8|0,0:0|0:0,0:0:0
384,96,46935,2,0,B|416:16|480:32,1,96,0|8,0:0|0:0,0:0:0
448,128,47601,2,0,B|400:160|496:176,1,96,0|8,0:0|0:0,0:0:0
448,256,48268,6,0,B|432:304|384:362|336:304|320:256,1,192,2|0,0:0|0:0,0:0:0
384,192,49267,1,0,0:0:0
448,128,49601,2,0,B|432:80|384:22|336:80|320:128,1,192
256,192,50600,1,0,0:0:0
208,272,50934,6,0,B|272:256|272:336,1,96,8|0,0:0|0:0,0:0:0
176,304,51600,2,0,B|224:368|144:384,1,96,8|0,0:0|0:0,0:0:0
128,288,52267,2,0,B|64:272|48:208,1,96,0|8,0:0|0:0,0:0:0
144,192,52933,2,0,B|144:112|96:80,1,96,0|8,0:0|0:0,0:0:0
32,64,53600,5,8,0:0:0
32,160,53933,1,2,0:0:0
32,256,54267,2,0,B|128:256,1,96,8|2,0:0|0:0,0:0:0
176,336,54933,2,0,B|272:336,1,96,8|0,0:0|0:0,0:0:0
320,256,55600,2,0,B|416:256,1,96,8|0,0:0|0:0,0:0:0
480,320,56266,5,8,0:0:0
480,224,56599,1,2,0:0:0
480,128,56933,2,0,B|384:128,1,96,8|2,0:0|0:0,0:0:0
336,48,57599,2,0,B|240:48,1,96,8|0,0:0|0:0,0:0:0
192,128,58266,2,0,B|96:128,1,96,8|0,0:0|0:0,0:0:0
144,48,58932,5,8,0:0:0
224,96,59265,1,2,0:0:0
272,176,59599,1,8,0:0:0
320,256,59932,1,2,0:0:0
368,336,60265,1,8,0:0:0
288,288,60598,1,0,0:0:0
240,208,60932,1,8,0:0:0
192,128,61265,1,0,0:0:0
112,176,61598,6,0,B|112:240|176:240,1,96,2|0,0:0|0:0,0:0:0
256,272,62265,2,0,B|320:272|304:208,1,96,2|0,0:0|0:0,0:0:0
400,208,62931,2,0,B|400:144|336:144,1,96,8|8,0:0|0:0,0:0:0
256,112,63598,2,0,B|192:112|208:176,1,96,8|8,0:0|0:0,0:0:0
256,256,64264,5,2,0:0:0
128,144,69596,6,0,B|208:80|256:64|304:80|384:144,1,288,2|8,0:0|0:0,0:0:0
384,240,70929,2,0,B|304:304|256:320|208:304|128:240,1,288,2|8,0:0|0:0,0:0:0
64,192,72263,1,4,0:0:0
256,192,72596,12,0,76928,0:0:0
224,128,77595,6,0,B|160:128|160:192|160:256|224:256,1,192,2|0,0:0|0:0,0:0:0
256,352,78594,1,0,0:0:0
288,256,78928,2,0,B|352:256|352:192|352:128|288:128,1,192,8|0,0:0|0:0,0:0:0
256,192,79927,1,0,0:0:0
256,96,80261,5,8,0:0:0
336,144,80594,1,2,0:0:0
336,240,80927,1,8,0:0:0
256,288,81261,1,2,0:0:0
176,240,81594,1,8,0:0:0
176,144,81927,1,0,0:0:0
256,192,82260,1,8,0:0:0
288,128,82927,6,0,B|352:128|352:192|352:256|288:256,1,192,2|0,0:0|0:0,0:0:0
256,352,83927,1,0,0:0:0
224,256,84260,2,0,B|160:256|160:192|160:128|224:128,1,192,2|0,0:0|0:0,0:0:0
256,192,85259,1,0,0:0:0
256,96,85593,5,8,0:0:0
176,144,85926,1,2,0:0:0
176,240,86259,1,8,0:0:0
256,288,86593,1,2,0:0:0
336,240,86926,1,8,0:0:0
336,144,87259,1,0,0:0:0
256,192,87592,1,8,0:0:0
144,112,88259,6,0,B|74:160|128:192|182:224|112:272,1,192,8|0,0:0|0:0,0:0:0
144,368,89259,1,0,0:0:0
176,272,89592,2,0,B|246:224|192:192|138:160|208:112,1,192,8|0,0:0|0:0,0:0:0
288,112,90592,1,0,0:0:0
256,192,90925,5,2,0:0:0
256,192,91258,1,8,0:0:0
352,192,91592,1,2,0:0:0
352,192,91925,1,8,0:0:0
304,272,92258,1,2,0:0:0
304,272,92591,1,0,0:0:0
400,272,92925,1,2,0:0:0
368,112,93591,6,0,B|438:160|384:192|330:224|400:272,1,192,8|0,0:0|0:0,0:0:0
368,368,94591,1,0,0:0:0
336,272,94924,2,0,B|266:224|320:192|374:160|304:112,1,192,8|0,0:0|0:0,0:0:0
224,112,95924,1,0,0:0:0
256,192,96257,6,0,B|160:192,1,96,2|8,0:0|0:0,0:0:0
208,288,96924,2,0,B|112:288,1,96,2|8,0:0|0:0,0:0:0
160,192,97590,2,0,B|64:192,2,96,2|0|2,0:0|0:0|0:0,0:0:0
256,64,98923,5,4,0:0:0
336,112,99257,1,0,0:0:0
256,160,99590,2,0,B|304:192,1,48
299,234,99923,1,0,0:0:0
256,320,100256,1,0,0:0:0
336,272,100590,1,0,0:0:0
256,224,100923,2,0,B|208:192,1,48
199,152,101256,1,0,0:0:0
160,240,101589,6,0,B|160:288,2,48
160,144,102256,2,0,B|160:96,2,48
256,144,102922,2,0,B|304:144,2,48
288,108,103422,1,0,0:0:0
336,112,103589,2,0,B|384:112,2,48
256,64,104255,5,4,0:0:0
176,112,104589,1,0,0:0:0
256,160,104922,2,0,B|208:192,1,48
213,234,105255,1,0,0:0:0
256,320,105588,1,0,0:0:0
176,272,105922,1,0,0:0:0
256,224,106255,2,0,B|304:192,1,48
313,152,106588,1,0,0:0:0
352,240,106921,6,0,B|352:288,2,48
352,144,107588,2,0,B|352:96,2,48
256,144,108255,2,0,B|208:144,2,48
224,108,108755,1,0,0:0:0
176,112,108922,2,0,B|128:112,2,48
256,48,109588,1,4,0:0:0
160,176,120252,6,0,B|160:272,2,96
256,176,121252,1,0,0:0:0
352,176,121585,2,0,B|352:272,2,96
256,176,122585,1,0,0:0:0
208,96,122918,6,0,B|160:96|128:144,1,96
128,240,123584,2,0,B|160:288|208:288,1,96
304,288,124251,2,0,B|352:288|384:240,1,96
384,144,124917,2,0,B|352:96|304:96,1,96
352,176,125584,6,0,B|352:272,2,96
256,176,126584,1,0,0:0:0
160,176,126917,2,0,B|160:272,2,96
256,176,127917,1,0,0:0:0
304,96,128250,6,0,B|352:96|384:144,1,96,8|0,0:0|0:0,0:0:0
384,240,128916,2,0,B|352:288|304:288,1,96,8|0,0:0|0:0,0:0:0
208,288,129583,1,2,0:0:0
208,96,130250,1,2,0:0:0
64,224,130916,6,0,B|16:208|48:192|16:176|64:160,1,96,4|0,0:0|0:0,0:0:0
64,80,131583,2,0,B|80:32|96:64|112:32|128:80,1,96
128,160,132249,2,0,B|176:176|144:192|176:208|128:224,1,96
128,304,132916,2,0,B|112:352|96:320|80:352|64:304,1,96
64,224,133582,5,8,0:0:0
160,224,133915,1,2,0:0:0
240,272,134249,1,8,0:0:0
304,208,134582,1,2,0:0:0
208,176,134915,1,8,0:0:0
272,112,135249,1,0,0:0:0
352,160,135582,1,8,0:0:0
448,160,135915,1,0,0:0:0
448,64,136248,6,0,B|432:16|416:48|400:16|384:64,1,96,2|0,0:0|0:0,0:0:0
384,160,136915,2,0,B|336:176|368:192|336:208|384:224,1,96
384,320,137581,2,0,B|400:368|416:336|432:368|448:320,1,96
448,224,138248,2,0,B|496:208|464:192|496:176|448:160,1,96
384,240,138914,5,8,0:0:0
384,144,139247,1,2,0:0:0
320,80,139581,1,8,0:0:0
256,144,139914,1,2,0:0:0
256,240,140247,1,8,0:0:0
192,304,140581,1,0,0:0:0
128,240,140914,1,8,0:0:0
128,144,141247,1,0,0:0:0
112,48,141580,6,0,B|208:48,3,96,4|0|0|0,0:0|0:0|0:0|0:0,0:0:0
208,144,142913,2,0,B|304:144,3,96
304,240,144247,2,0,B|208:240,3,96,8|2|8|2,0:0|0:0|0:0|0:0,0:0:0
208,336,145580,2,0,B|112:336,2,96,8|0|8,0:0|0:0|0:0,0:0:0
304,288,146579,1,0,0:0:0
400,336,146913,6,0,B|304:336,3,96,2|0|0|0,0:0|0:0|0:0|0:0,0:0:0
304,240,148246,2,0,B|208:240,3,96
208,144,149580,2,0,B|304:144,3,96,8|2|8|2,0:0|0:0|0:0|0:0,0:0:0
304,48,150913,2,0,B|400:48,2,96,8|8|8,0:0|0:0|0:0,0:0:0
208,48,151912,1,2,0:0:0
208,144,152245,6,0,B|160:144,1,48,4|0,0:0|0:0,0:0:0
112,144,152578,2,0,B|112:192,1,48,8|0,0:0|0:0,0:0:0
112,240,152911,2,0,B|160:240,1,48,0|0,0:0|0:0,0:0:0
208,240,153245,2,0,B|208:192,1,48,8|0,0:0|0:0,0:0:0
304,192,153744,1,0,0:0:0
256,272,154078,1,0,0:0:0
208,192,154411,2,0,B|208:144,1,48
304,144,154911,6,0,B|352:144,1,48
400,144,155244,2,0,B|400:192,1,48,8|0,0:0|0:0,0:0:0
400,240,155577,2,0,B|352:240,1,48
304,240,155911,2,0,B|304:192,1,48,8|0,0:0|0:0,0:0:0
208,192,156410,1,0,0:0:0
256,272,156744,1,0,0:0:0
304,192,157077,2,0,B|256:224,1,48
256,320,157577,5,0,0:0:0
352,320,157910,1,8,0:0:0
304,256,158243,1,0,0:0:0
400,256,158577,1,8,0:0:0
448,192,158910,1,8,0:0:0
352,192,159243,1,2,0:0:0
400,128,159576,1,8,0:0:0
304,128,159910,1,2,0:0:0
224,160,160243,2,0,B|48:192|224:224,3,192,8|8|8|2,0:0|0:0|0:0|0:0,0:0:0
256,320,162909,5,0,0:0:0
160,320,163242,1,8,0:0:0
208,256,163575,1,0,0:0:0
112,256,163909,1,8,0:0:0
64,192,164242,1,8,0:0:0
160,192,164575,1,2,0:0:0
112,128,164908,1,8,0:0:0
208,128,165242,1,2,0:0:0
304,128,165575,6,0,B|336:63|368:128,1,96,0|8,0:0|0:0,0:0:0
448,160,166242,2,0,B|513:192|448:224,1,96,0|8,0:0|0:0,0:0:0
368,256,166908,2,0,B|336:321|304:256,1,96,2|8,0:0|0:0,0:0:0
224,224,167575,2,0,B|159:192|224:160,1,96,2|0,0:0|0:0,0:0:0
304,192,168241,2,0,B|368:128|384:192|400:256|464:192,3,192,2|0|0|0,0:0|0:0|0:0|0:0,0:0:0
256,192,170907,5,4,0:0:0
256,192,171241,12,0,174907,0:0:0
