osu file format v10

[General]
AudioFilename: Rooftop Run (Day).mp3
AudioLeadIn: 0
PreviewTime: 10943
Countdown: 1
SampleSet: Normal
StackLeniency: 0.7
Mode: 0
LetterboxInBreaks: 0

[Editor]
Bookmarks: 279,10943,21607,32271,42936,53600,64264,72263,77595,88259,98923,109588,120252,130916,141580,152245,162909,170907
DistanceSpacing: 1
BeatDivisor: 1
GridSize: 16

[Metadata]
Title:Rooftop Run (Daytime)
TitleUnicode:Rooftop Run (Daytime)
Artist:Tomoya Ohtani
ArtistUnicode:Tomoya Ohtani
Creator:chaotic_iak
Version:Rooftop Breeze (Easy)
Source:Sonic Unleashed
Tags:sonic unleashed spagonia qwertykool okamiratsu
BeatmapID:183458
BeatmapSetID:51116

[Difficulty]
HPDrainRate:2
CircleSize:4
OverallDifficulty:3
ApproachRate:3
SliderMultiplier:0.64
SliderTickRate:1

[Events]
//Background and Video events
0,0,"background.jpg"
//Break Periods
2,32471,41496
2,99123,108148
//Storyboard Layer 0 (Background)
//Storyboard Layer 1 (Fail)
//Storyboard Layer 2 (Pass)
//Storyboard Layer 3 (Foreground)
//Storyboard Sound Samples
//Background Colour Transformations
3,100,163,162,255

[TimingPoints]
279,333.259275716507,4,1,0,50,1,0
77595,-100,4,1,0,50,0,1
98923,-100,4,1,0,50,0,0
170241,-100,4,1,0,40,0,0
170907,-100,4,1,0,35,0,0
171574,-100,4,1,0,30,0,0
172240,-100,4,1,0,25,0,0
172907,-100,4,1,0,20,0,0
173573,-100,4,1,0,15,0,0
174240,-100,4,1,0,10,0,0

[Colours]
Combo1 : 255,192,124
Combo2 : 128,64,64
Combo3 : 255,128,64
Combo4 : 128,128,64

[HitObjects]
256,96,10943,2,0,B|224:64|96:64|96:144,1,192
128,192,12276,2,0,B|144:272|192:240|240:272|256:192,1,192
320,192,13609,2,0,B|336:112|384:64|448:80|480:128|496:208|432:272|384:288,1,384,2|0,0:0|0:0,0:0:0
256,288,16275,6,0,B|224:320|96:320|96:240,1,192
128,192,17608,2,0,B|144:112|192:144|240:112|256:192,1,192
320,192,18941,2,0,B|336:272|384:320|448:304|480:256|496:176|432:112|384:96,1,384,2|0,0:0|0:0,0:0:0
256,96,21607,5,2,0:0:0
192,192,22274,1,0,0:0:0
128,96,22940,1,8,0:0:0
64,192,23607,1,0,0:0:0
128,288,24273,5,2,0:0:0
192,192,24940,1,0,0:0:0
256,288,25606,2,0,B|288:288|304:240|288:192|256:192,1,128,8|0,0:0|0:0,0:0:0
256,96,26939,5,2,0:0:0
320,192,27606,1,0,0:0:0
384,96,28272,1,8,0:0:0
448,192,28939,1,0,0:0:0
384,288,29605,5,2,0:0:0
320,192,30272,1,0,0:0:0
256,288,30938,2,0,B|224:288|208:240|224:192|256:192,1,128,8|0,0:0|0:0,0:0:0
256,80,32271,1,6,0:0:0
176,144,42936,6,0,B|100:192|176:240,1,128,2|0,0:0|0:0,0:0:0
304,272,44269,2,0,B|256:348|208:272,1,128,8|0,0:0|0:0,0:0:0
336,240,45602,2,0,B|412:192|336:144,1,128,2|0,0:0|0:0,0:0:0
208,112,46935,2,0,B|256:36|304:112,1,128,8|0,0:0|0:0,0:0:0
384,192,48268,5,2,0:0:0
384,320,48934,1,0,0:0:0
256,320,49601,1,8,0:0:0
128,320,50267,1,0,0:0:0
128,192,50934,5,2,0:0:0
128,64,51600,1,0,0:0:0
256,64,52267,1,8,0:0:0
384,64,52933,1,0,0:0:0
256,192,53600,12,0,56266,0:0:0
208,192,57599,6,0,B|256:112|304:192,1,128,2|0,0:0|0:0,0:0:0
256,192,58932,12,0,61598,0:0:0
304,192,62931,6,0,B|256:272|208:192,1,128,2|0,0:0|0:0,0:0:0
320,144,64264,2,0,B|396:192|320:240,1,128,2|0,0:0|0:0,0:0:0
192,240,65597,2,0,B|116:192|192:144,1,128,8|0,0:0|0:0,0:0:0
304,128,66930,2,0,B|256:52|208:128,1,128,2|0,0:0|0:0,0:0:0
208,256,68263,2,0,B|256:332|304:256,1,128,8|0,0:0|0:0,0:0:0
256,128,69596,5,2,0:0:0
368,192,70263,1,0,0:0:0
256,256,70929,1,8,0:0:0
144,192,71596,1,0,0:0:0
288,192,72263,6,0,B|320:128|288:64|256:92|224:64|192:128|224:192,1,256,2|8,0:0|0:0,0:0:0
320,320,74595,5,8,0:0:0
256,320,74929,1,8,0:0:0
192,208,75595,1,8,0:0:0
320,176,76262,1,2,0:0:0
256,64,76928,1,2,0:0:0
256,192,77595,6,0,B|256:128,1,64,6|0,0:0|0:0,0:0:0
320,128,78261,2,0,B|384:128,1,64
384,192,78928,2,0,B|384:256,1,64,8|0,0:0|0:0,0:0:0
320,256,79594,2,0,B|256:256,1,64
208,304,80261,2,0,B|144:304|64:272|43:192|64:112|144:80|208:80,1,384,2|0,0:0|0:0,0:0:0
256,192,82927,6,0,B|256:128,1,64,2|0,0:0|0:0,0:0:0
192,128,83593,2,0,B|128:128,1,64
128,192,84260,2,0,B|128:256,1,64,8|0,0:0|0:0,0:0:0
192,256,84926,2,0,B|256:256,1,64
304,304,85593,2,0,B|368:304|448:272|469:192|448:112|368:80|304:80,1,384,2|0,0:0|0:0,0:0:0
336,192,88259,6,0,B|320:192|304:136|320:136|336:136|320:80|304:80,1,128,2|0,0:0|0:0,0:0:0
256,48,89259,1,0,0:0:0
256,112,89592,2,0,B|256:128|200:144|200:128|200:112|144:128|144:144,1,128,8|0,0:0|0:0,0:0:0
112,192,90592,1,0,0:0:0
176,192,90925,6,0,B|192:192|208:248|192:248|176:248|192:304|208:304,1,128,2|0,0:0|0:0,0:0:0
256,336,91925,1,0,0:0:0
256,272,92258,2,0,B|256:256|312:240|312:256|312:272|368:256|368:240,1,128,8|0,0:0|0:0,0:0:0
400,192,93258,1,0,0:0:0
400,128,93591,6,0,B|400:48|320:48,1,128,2|0,0:0|0:0,0:0:0
256,48,94591,1,0,0:0:0
192,48,94924,2,0,B|112:48|112:128,1,128,8|0,0:0|0:0,0:0:0
112,192,95924,1,0,0:0:0
112,256,96257,6,0,B|112:336|192:336,2,128,2|0|8,0:0|0:0|0:0,0:0:0
240,256,98257,2,0,B|288:256|304:224,1,64
256,192,98923,1,6,0:0:0
128,64,109588,5,2,0:0:0
128,192,110254,1,0,0:0:0
128,320,110921,1,8,0:0:0
256,320,111587,1,0,0:0:0
384,320,112254,5,2,0:0:0
384,192,112920,1,0,0:0:0
384,64,113587,1,8,0:0:0
256,64,114253,1,0,0:0:0
128,64,114920,6,0,B|192:64,1,64,2|0,0:0|0:0,0:0:0
256,64,115586,2,0,B|320:64,1,64
384,64,116253,2,0,B|384:128,1,64,8|0,0:0|0:0,0:0:0
384,192,116919,2,0,B|384:256,1,64
384,320,117586,6,0,B|320:320,1,64,2|0,0:0|0:0,0:0:0
256,320,118252,2,0,B|192:320,1,64
128,320,118919,2,0,B|128:256,1,64,8|0,0:0|0:0,0:0:0
128,192,119585,2,0,B|128:128,1,64
256,192,120252,12,0,122918,0:0:0
208,192,124251,5,2,0:0:0
256,144,124584,1,0,0:0:0
304,192,124917,1,0,0:0:0
256,240,125251,1,0,0:0:0
256,304,125584,1,2,0:0:0
176,160,126917,6,0,B|176:224,1,64,8|0,0:0|0:0,0:0:0
224,272,127584,2,0,B|288:272,1,64
336,224,128250,2,0,B|336:160,1,64,2|0,0:0|0:0,0:0:0
288,112,128917,2,0,B|224:112,1,64
256,160,129583,5,8,0:0:0
256,224,129916,1,8,0:0:0
256,288,130250,1,8,0:0:0
256,352,130583,1,8,0:0:0
320,352,130916,1,6,0:0:0
320,288,131249,5,0,0:0:0
320,224,131583,1,0,0:0:0
320,160,131916,2,0,B|256:160,1,64,0|8,0:0|0:0,0:0:0
192,160,132582,5,0,0:0:0
192,224,132916,1,0,0:0:0
192,288,133249,2,0,B|128:288,1,64,0|2,0:0|0:0,0:0:0
64,288,133915,5,0,0:0:0
64,224,134249,1,0,0:0:0
64,160,134582,2,0,B|128:160,1,64,0|8,0:0|0:0,0:0:0
128,96,135249,2,0,B|192:96,1,64
192,32,135915,2,0,B|256:32,1,64,0|2,0:0|0:0,0:0:0
320,32,136582,5,0,0:0:0
320,96,136915,1,0,0:0:0
384,96,137248,2,0,B|384:160,1,64,0|8,0:0|0:0,0:0:0
448,160,137915,5,0,0:0:0
448,224,138248,1,0,0:0:0
448,288,138581,2,0,B|384:288,1,64,0|2,0:0|0:0,0:0:0
384,352,139248,5,0,0:0:0
320,352,139581,1,0,0:0:0
320,288,139914,2,0,B|320:224,1,64,0|8,0:0|0:0,0:0:0
256,224,140581,2,0,B|256:160,1,64
192,160,141247,1,0,0:0:0
256,192,141580,12,0,144247,0:0:0
96,96,145580,6,0,B|96:160,1,64,2|0,0:0|0:0,0:0:0
160,160,146246,2,0,B|160:96,1,64
256,192,146913,12,0,149579,0:0:0
416,288,150912,6,0,B|416:224,1,64,2|0,0:0|0:0,0:0:0
352,224,151578,2,0,B|352:288,1,64
288,288,152245,5,2,0:0:0
240,256,152578,1,0,0:0:0
288,224,152911,1,0,0:0:0
240,192,153245,1,0,0:0:0
224,128,153578,2,0,B|288:128,1,64,8|0,0:0|0:0,0:0:0
288,64,154244,2,0,B|224:64,1,64
176,96,154911,5,2,0:0:0
128,128,155244,1,0,0:0:0
176,160,155577,1,0,0:0:0
128,192,155911,1,0,0:0:0
128,256,156244,2,0,B|192:256,1,64,8|0,0:0|0:0,0:0:0
192,320,156910,2,0,B|128:320,1,64
64,320,157577,5,2,0:0:0
64,256,157910,1,0,0:0:0
64,192,158243,1,0,0:0:0
64,128,158577,1,0,0:0:0
64,64,158910,2,0,B|128:64,1,64,8|0,0:0|0:0,0:0:0
192,64,159576,2,0,B|256:64,1,64
320,64,160243,6,0,B|384:64,1,64,2|0,0:0|0:0,0:0:0
352,128,160909,2,0,B|288:128,1,64
256,192,161576,2,0,B|320:192,1,64,8|0,0:0|0:0,0:0:0
288,256,162243,2,0,B|224:256,1,64
192,320,162909,5,2,0:0:0
256,320,163242,1,0,0:0:0
320,320,163576,1,0,0:0:0
320,256,163909,1,0,0:0:0
384,256,164242,5,8,0:0:0
384,192,164575,1,0,0:0:0
384,128,164909,1,0,0:0:0
320,128,165242,1,0,0:0:0
320,64,165575,5,2,0:0:0
256,64,165908,1,0,0:0:0
192,64,166242,1,0,0:0:0
192,128,166575,1,0,0:0:0
128,128,166908,5,8,0:0:0
128,192,167241,1,0,0:0:0
128,256,167575,1,0,0:0:0
192,256,167908,1,0,0:0:0
256,256,168241,6,0,B|347:284|320:192,1,128,2|0,0:0|0:0,0:0:0
320,128,169241,1,0,0:0:0
256,128,169574,2,0,B|165:100|192:192,1,128,8|0,0:0|0:0,0:0:0
192,256,170574,1,0,0:0:0
256,192,170907,12,0,175573,0:0:0
