osu file format v10

[General]
AudioFilename: Rooftop Run (Day).mp3
AudioLeadIn: 2387
PreviewTime: 10943
Countdown: 0
SampleSet: Normal
StackLeniency: 0.7
Mode: 0
LetterboxInBreaks: 0

[Editor]
Bookmarks: 279,10943,21607,32271,42936,53600,64264,72263,77595,88259,98923,109588,120252,130916,141580,152245,162909,170907
DistanceSpacing: 1
BeatDivisor: 4
GridSize: 16

[Metadata]
Title:Rooftop Run (Daytime)
TitleUnicode:Rooftop Run (Daytime)
Artist:Tomoya Ohtani
ArtistUnicode:Tomoya Ohtani
Creator:chaotic_iak
Version:Roof Breaker (Extra)
Source:Sonic Unleashed
Tags:sonic unleashed spagonia qwertykool okamiratsu
BeatmapID:162540
BeatmapSetID:51116

[Difficulty]
HPDrainRate:7
CircleSize:4
OverallDifficulty:7
ApproachRate:9
SliderMultiplier:1.92
SliderTickRate:2

[Events]
//Background and Video events
0,0,"background.jpg"
//Break Periods
2,32471,37004
2,64464,68996
2,99123,103655
2,131116,135648
//Storyboard Layer 0 (Background)
//Storyboard Layer 1 (Fail)
//Storyboard Layer 2 (Pass)
//Storyboard Layer 3 (Foreground)
//Storyboard Sound Samples
//Background Colour Transformations
3,100,163,162,255

[TimingPoints]
279,333.259275716507,4,1,0,40,1,0
72263,-66.6666666666667,4,1,0,40,0,0
77595,-100,4,1,0,50,0,1
98923,-100,4,1,0,40,0,0
168241,-66.6666666666667,4,1,0,40,0,0
170241,-66.6666666666667,4,1,0,40,0,0
170907,-66.6666666666667,4,1,0,35,0,0
171574,-66.6666666666667,4,1,0,30,0,0
172240,-66.6666666666667,4,1,0,25,0,0
172907,-66.6666666666667,4,1,0,20,0,0
173573,-66.6666666666667,4,1,0,15,0,0

[Colours]
Combo1 : 255,192,124
Combo2 : 128,64,64
Combo3 : 255,128,64
Combo4 : 128,128,64

[HitObjects]
144,64,279,1,0,0:0:0
192,144,445,1,0,0:0:0
192,144,528,1,0,0:0:0
192,144,612,1,8,0:0:0
240,64,778,1,0,0:0:0
240,64,862,1,0,0:0:0
240,64,945,1,0,0:0:0
288,144,1112,1,0,0:0:0
288,144,1195,1,0,0:0:0
288,144,1278,1,8,0:0:0
336,64,1445,1,0,0:0:0
336,64,1528,1,0,0:0:0
336,64,1612,1,0,0:0:0
384,144,1778,1,0,0:0:0
384,144,1861,1,0,0:0:0
384,144,1945,1,8,0:0:0
432,64,2111,1,0,0:0:0
432,64,2195,1,0,0:0:0
432,64,2278,1,0,0:0:0
480,144,2445,1,0,0:0:0
480,144,2528,1,0,0:0:0
480,144,2611,1,8,0:0:0
480,240,2778,1,0,0:0:0
480,240,2861,1,0,0:0:0
480,240,2945,5,0,0:0:0
432,320,3111,1,0,0:0:0
432,320,3195,1,0,0:0:0
432,320,3278,1,8,0:0:0
384,240,3444,1,0,0:0:0
384,240,3528,1,0,0:0:0
384,240,3611,1,0,0:0:0
336,320,3778,1,0,0:0:0
336,320,3861,1,0,0:0:0
336,320,3944,1,8,0:0:0
288,240,4111,1,0,0:0:0
288,240,4194,1,0,0:0:0
288,240,4278,1,0,0:0:0
240,320,4444,1,0,0:0:0
240,320,4528,1,0,0:0:0
240,320,4611,1,8,0:0:0
192,240,4778,1,0,0:0:0
192,240,4861,1,0,0:0:0
192,240,4944,1,0,0:0:0
144,320,5111,1,8,0:0:0
144,320,5194,1,0,0:0:0
144,320,5277,1,8,0:0:0
64,320,5444,1,0,0:0:0
64,320,5527,1,0,0:0:0
64,320,5611,6,0,B|256:320,1,192,2|0,0:0|0:0,0:0:0
256,224,6111,2,0,B|448:224,1,192,2|0,0:0|0:0,0:0:0
448,128,6610,2,0,B|432:64|416:203|400:128|400:128|384:52|368:192|352:128,1,192,2|0,0:0|0:0,0:0:0
304,48,7110,1,8,0:0:0
208,48,7277,1,8,0:0:0
160,128,7444,1,8,0:0:0
208,208,7610,2,0,B|304:208,1,96,8|0,0:0|0:0,0:0:0
256,128,7943,2,0,B|160:128,1,96,8|0,0:0|0:0,0:0:0
64,64,8277,6,0,B|256:64,1,192,2|0,0:0|0:0,0:0:0
256,160,8777,2,0,B|448:160,1,192,2|0,0:0|0:0,0:0:0
448,256,9276,2,0,B|432:320|416:181|400:256|400:256|384:332|368:192|352:256,1,192,2|0,0:0|0:0,0:0:0
304,336,9776,1,8,0:0:0
208,336,9943,1,8,0:0:0
160,256,10110,1,8,0:0:0
208,176,10276,2,0,B|304:176,1,96,8|0,0:0|0:0,0:0:0
256,256,10610,1,8,0:0:0
256,256,10693,1,0,0:0:0
256,256,10776,1,8,0:0:0
256,256,10859,1,0,0:0:0
256,256,10943,6,0,B|320:256|320:192|320:128|320:96,2,192,6|0|0,0:0|0:0|0:0,0:0:0
256,80,11776,1,0,0:0:0
256,304,11943,1,0,0:0:0
256,128,12109,2,0,B|192:128|192:192|192:256|192:288,2,192,8|0|0,0:0|0:0|0:0,0:0:0
352,128,12942,1,0,0:0:0
288,192,13109,1,0,0:0:0
192,192,13276,1,0,0:0:0
96,192,13442,1,0,0:0:0
48,272,13609,6,0,B|144:272,1,96
48,224,13942,2,0,B|144:224,1,96,8|0,0:0|0:0,0:0:0
48,176,14275,2,0,B|144:176,1,96
48,128,14609,2,0,B|144:128,1,96,8|0,0:0|0:0,0:0:0
464,128,14942,2,0,B|368:128,1,96
464,176,15275,2,0,B|368:176,1,96,8|0,0:0|0:0,0:0:0
256,192,15608,1,0,0:0:0
368,224,15775,2,0,B|464:224,1,96,8|8,0:0|0:0,0:0:0
368,272,16108,1,0,0:0:0
256,256,16275,6,0,B|192:256|192:192|192:128|192:96,2,192,2|0|0,0:0|0:0|0:0,0:0:0
256,80,17108,1,0,0:0:0
256,304,17275,1,0,0:0:0
256,128,17441,2,0,B|320:128|320:192|320:256|320:288,2,192,8|0|0,0:0|0:0|0:0,0:0:0
160,128,18274,1,0,0:0:0
224,192,18441,1,0,0:0:0
320,192,18608,1,0,0:0:0
416,192,18774,1,0,0:0:0
464,272,18941,6,0,B|368:272,1,96
464,224,19274,2,0,B|368:224,1,96,8|0,0:0|0:0,0:0:0
464,176,19607,2,0,B|368:176,1,96
464,128,19941,2,0,B|368:128,1,96,8|0,0:0|0:0,0:0:0
48,128,20274,2,0,B|144:128,1,96
48,176,20607,2,0,B|144:176,1,96,8|0,0:0|0:0,0:0:0
256,192,20940,1,0,0:0:0
144,224,21107,2,0,B|48:224,1,96,8|8,0:0|0:0,0:0:0
48,224,21357,1,0,0:0:0
48,224,21440,1,8,0:0:0
48,224,21524,1,0,0:0:0
48,224,21607,6,0,B|96:66|144:224,2,192,2|0|0,0:0|0:0|0:0,0:0:0
192,192,22440,1,0,0:0:0
320,192,22607,1,0,0:0:0
464,160,22774,2,0,B|416:318|368:160,2,192,8|0|0,0:0|0:0|0:0,0:0:0
416,80,23607,1,0,0:0:0
320,80,23773,2,0,B|256:80|256:144,2,96
304,192,24273,6,0,B|208:192,1,96
208,144,24606,2,0,B|304:144,1,96,8|0,0:0|0:0,0:0:0
304,240,24940,2,0,B|208:240,1,96
208,96,25273,2,0,B|304:96,1,96,8|0,0:0|0:0,0:0:0
304,288,25606,2,0,B|208:288,1,96
208,48,25939,2,0,B|304:48,1,96,8|0,0:0|0:0,0:0:0
256,192,26273,1,0,0:0:0
208,336,26439,2,0,B|304:336,1,96,8|8,0:0|0:0,0:0:0
416,288,26773,1,0,0:0:0
464,160,26939,6,0,B|416:318|368:160,2,192,2|0|0,0:0|0:0|0:0,0:0:0
320,192,27772,1,0,0:0:0
192,192,27939,1,0,0:0:0
48,224,28106,2,0,B|96:66|144:224,2,192,8|0|0,0:0|0:0|0:0,0:0:0
96,304,28939,1,0,0:0:0
192,304,29105,2,0,B|256:304|256:240,2,96
256,336,29605,6,0,B|256:48,1,288,2|0,0:0|0:0,0:0:0
48,48,30272,2,0,B|144:320,1,288,2|0,0:0|0:0,0:0:0
368,320,30938,2,0,B|464:48,1,288,2|0,0:0|0:0,0:0:0
400,48,31605,1,8,0:0:0
368,48,31688,1,0,0:0:0
384,80,31772,1,2,0:0:0
352,80,31855,1,0,0:0:0
368,112,31938,1,8,0:0:0
336,112,32021,1,0,0:0:0
352,144,32105,1,2,0:0:0
320,144,32188,1,0,0:0:0
336,176,32271,5,6,0:0:0
160,144,37604,6,0,B|2:192|160:240,2,192,8|0|0,0:0|0:0|0:0,0:0:0
272,144,38437,1,0,0:0:0
256,240,38603,1,0,0:0:0
240,144,38770,1,8,0:0:0
352,144,38937,2,0,B|510:192|352:240,2,192
240,240,39770,1,0,0:0:0
256,144,39936,1,0,0:0:0
272,240,40103,1,0,0:0:0
208,288,40270,6,0,B|256:446|304:288,2,192,8|0|0,0:0|0:0|0:0,0:0:0
208,176,41103,1,0,0:0:0
304,192,41269,1,0,0:0:0
208,208,41436,1,8,0:0:0
208,96,41603,2,0,B|256:-62|304:96,2,192
304,208,42436,1,8,0:0:0
400,176,42602,1,8,0:0:0
400,184,42686,1,0,0:0:0
400,192,42769,1,8,0:0:0
400,200,42852,1,0,0:0:0
400,208,42936,6,0,B|354:304|480:352,1,192,2|0,0:0|0:0,0:0:0
32,32,43602,1,0,0:0:0
32,128,43769,1,0,0:0:0
112,80,43935,1,0,0:0:0
192,128,44102,1,8,0:0:0
112,176,44269,2,0,B|158:80|32:32,1,192,0|0,0:0|0:0,0:0:0
480,352,44935,1,0,0:0:0
480,256,45102,1,0,0:0:0
400,304,45268,1,8,0:0:0
320,256,45435,1,0,0:0:0
400,176,45602,6,0,B|354:80|480:32,1,192,8|0,0:0|0:0,0:0:0
32,352,46268,1,0,0:0:0
32,256,46435,1,0,0:0:0
112,304,46601,1,0,0:0:0
208,256,46768,1,8,0:0:0
112,208,46935,2,0,B|158:304|32:352,1,192
480,32,47601,1,0,0:0:0
480,128,47768,1,0,0:0:0
400,80,47934,1,8,0:0:0
320,128,48101,1,0,0:0:0
232,192,48268,6,0,B|232:288,1,96
280,288,48601,2,0,B|280:192,1,96,8|0,0:0|0:0,0:0:0
184,192,48934,2,0,B|184:288,1,96
328,288,49268,2,0,B|328:192,1,96,8|0,0:0|0:0,0:0:0
136,192,49601,2,0,B|136:288,1,96
376,288,49934,2,0,B|376:192,1,96,8|0,0:0|0:0,0:0:0
88,192,50267,2,0,B|88:288,1,96
424,288,50601,2,0,B|424:192,1,96,8|0,0:0|0:0,0:0:0
88,192,50934,6,0,B|88:96,1,96
424,96,51267,2,0,B|424:192,1,96,8|0,0:0|0:0,0:0:0
136,192,51600,2,0,B|136:96,1,96
376,96,51934,2,0,B|376:192,1,96,8|0,0:0|0:0,0:0:0
184,192,52267,2,0,B|184:96,1,96
328,96,52600,2,0,B|328:192,1,96,8|0,0:0|0:0,0:0:0
232,192,52933,1,8,0:0:0
232,96,53100,1,0,0:0:0
256,96,53183,1,0,0:0:0
280,96,53267,1,8,0:0:0
280,192,53433,1,0,0:0:0
256,288,53600,6,0,B|256:336|224:288|192:336|192:288,1,96,6|0,0:0|0:0,0:0:0
192,288,53933,2,0,B|192:336|160:288|128:336|128:288,1,96,2|0,0:0|0:0,0:0:0
128,288,54267,2,0,B|128:336|96:288|64:336|64:288,1,96,2|0,0:0|0:0,0:0:0
64,288,54600,2,0,B|16:288|64:256|16:224|64:224,1,96,0|2,0:0|0:0,0:0:0
480,32,55100,1,2,0:0:0
480,352,55433,1,2,0:0:0
256,192,55766,1,2,0:0:0
256,192,55933,1,2,0:0:0
256,96,56266,6,0,B|256:48|288:96|320:48|320:96,1,96,2|0,0:0|0:0,0:0:0
320,96,56599,2,0,B|320:48|352:96|384:48|384:96,1,96,2|0,0:0|0:0,0:0:0
384,96,56933,2,0,B|384:48|416:96|448:48|448:96,1,96,2|0,0:0|0:0,0:0:0
32,352,57432,1,2,0:0:0
32,32,57766,1,2,0:0:0
128,32,57932,1,0,0:0:0
80,112,58099,1,2,0:0:0
32,192,58266,1,2,0:0:0
256,192,58599,1,2,0:0:0
480,32,58932,6,0,B|384:32,2,96
384,80,59432,2,0,B|480:80,2,96
32,32,60099,1,2,0:0:0
384,32,60432,2,0,B|480:32,2,96
256,32,60932,1,0,0:0:0
256,352,61265,1,2,0:0:0
32,192,61598,5,0,0:0:0
32,192,61765,2,0,B|32:256|96:256|160:256|160:192,1,192,8|8,0:0|0:0,0:0:0
480,192,62265,1,0,0:0:0
480,192,62432,2,0,B|480:128|416:128|352:128|352:192,1,192,8|8,0:0|0:0,0:0:0
32,192,62931,1,0,0:0:0
32,192,63098,2,0,B|32:128|96:128|160:128|160:192,1,192,8|8,0:0|0:0,0:0:0
480,192,63598,1,8,0:0:0
352,192,63764,1,0,0:0:0
256,128,63931,1,8,0:0:0
256,128,64014,1,0,0:0:0
256,128,64098,1,8,0:0:0
256,128,64181,1,0,0:0:0
256,128,64264,5,6,0:0:0
64,48,69596,5,2,0:0:0
64,336,69930,1,0,0:0:0
64,48,70263,1,0,0:0:0
160,48,70430,1,2,0:0:0
256,48,70596,1,2,0:0:0
352,48,70763,1,2,0:0:0
448,48,70929,1,0,0:0:0
448,336,71263,1,0,0:0:0
448,48,71596,1,0,0:0:0
256,336,71929,1,0,0:0:0
48,192,72263,6,0,B|32:48|256:48,2,287.999991416931,0|0|8,0:0|0:0|0:0,0:0:0
256,192,73262,1,0,0:0:0
256,192,73429,1,8,0:0:0
256,336,73596,2,0,B|336:336|400:304,2,143.999995708466,0|8|0,0:0|0:0|0:0,0:0:0
395,306,74095,1,0,0:0:0
464,192,74262,1,8,0:0:0
256,192,74595,1,0,0:0:0
48,48,74929,2,0,B|48:336,1,287.999991416931,2|0,0:0|0:0,0:0:0
464,336,75595,2,0,B|464:48,1,287.999991416931,2|0,0:0|0:0,0:0:0
144,288,76262,2,0,B|368:96,1,287.999991416931,2|0,0:0|0:0,0:0:0
144,96,76928,2,0,B|368:288,1,287.999991416931,2|8,0:0|0:0,0:0:0
362,283,77345,1,0,0:0:0
362,283,77428,1,8,0:0:0
362,283,77511,1,0,0:0:0
362,283,77595,6,0,B|416:192|368:96,2,192,6|0|0,0:0|0:0|0:0,0:0:0
256,256,78428,1,0,0:0:0
256,128,78594,1,0,0:0:0
149,100,78761,2,0,B|96:192|144:288,2,192,8|0|0,0:0|0:0|0:0,0:0:0
256,64,79594,1,0,0:0:0
368,96,79761,1,0,0:0:0
432,192,79927,1,8,0:0:0
304,192,80094,1,0,0:0:0
352,304,80261,5,0,0:0:0
352,304,80427,1,0,0:0:0
224,304,80594,1,8,0:0:0
224,304,80761,1,0,0:0:0
144,192,80927,1,0,0:0:0
144,192,81094,1,0,0:0:0
224,64,81261,1,8,0:0:0
224,64,81427,1,0,0:0:0
352,64,81594,1,0,0:0:0
352,64,81760,1,0,0:0:0
432,192,81927,1,8,0:0:0
432,192,82094,2,0,B|336:192,1,96
384,304,82427,1,8,0:0:0
256,304,82594,1,8,0:0:0
149,100,82927,6,0,B|96:192|144:288,2,192,2|0|0,0:0|0:0|0:0,0:0:0
256,128,83760,1,0,0:0:0
256,256,83926,1,0,0:0:0
362,283,84093,2,0,B|416:192|368:96,2,192,8|0|0,0:0|0:0|0:0,0:0:0
256,320,84926,1,0,0:0:0
144,288,85093,1,0,0:0:0
80,192,85259,1,8,0:0:0
208,192,85426,1,0,0:0:0
160,80,85593,5,0,0:0:0
160,80,85759,1,0,0:0:0
288,80,85926,1,8,0:0:0
288,80,86093,1,0,0:0:0
368,192,86259,1,0,0:0:0
368,192,86426,1,0,0:0:0
288,320,86593,1,8,0:0:0
288,320,86759,1,0,0:0:0
160,320,86926,1,0,0:0:0
160,320,87092,1,0,0:0:0
80,192,87259,1,8,0:0:0
80,192,87426,2,0,B|176:192,1,96
128,80,87759,1,8,0:0:0
256,80,87926,1,8,0:0:0
256,80,88009,1,0,0:0:0
256,80,88092,1,8,0:0:0
256,80,88176,1,0,0:0:0
256,192,88259,12,0,90259,0:0:0
80,192,90425,5,0,0:0:0
192,128,90592,1,8,0:0:0
192,256,90758,1,0,0:0:0
320,256,90925,1,0,0:0:0
320,128,91092,1,0,0:0:0
432,192,91258,1,8,0:0:0
304,192,91425,1,0,0:0:0
256,192,91592,12,0,93591,0:0:0
208,80,93924,6,0,P|304:80,2,96,0|8|0,0:0|0:0|0:0,0:0:0
80,80,94424,2,0,P|96:32|48:16|0:32|16:80|0:144,1,192,8|8,0:0|0:0,0:0:0
112,192,94924,1,0,0:0:0
208,192,95091,1,8,0:0:0
208,288,95257,1,0,0:0:0
112,288,95424,1,8,0:0:0
112,192,95591,1,0,0:0:0
176,112,95757,5,8,0:0:0
256,64,95924,1,8,0:0:0
352,80,96091,1,0,0:0:0
448,112,96257,2,2,P|496:112|512:32|432:0|400:0|320:32|336:112|384:112,1,288
384,256,96924,2,2,P|336:256|320:336|400:368|432:368|512:336|496:256|448:256,1,288
304,272,97590,1,0,0:0:0
192,304,97757,1,8,0:0:0
80,336,97923,1,0,0:0:0
112,224,98090,1,8,0:0:0
144,112,98257,1,0,0:0:0
176,224,98423,1,8,0:0:0
208,336,98590,5,8,0:0:0
240,336,98673,1,0,0:0:0
224,304,98757,1,8,0:0:0
256,304,98840,1,0,0:0:0
240,272,98923,1,6,0:0:0
96,192,104255,5,4,0:0:0
176,144,104422,1,0,0:0:0
176,144,104505,1,0,0:0:0
176,144,104589,1,8,0:0:0
256,96,104755,1,0,0:0:0
256,96,104838,1,0,0:0:0
256,96,104922,1,0,0:0:0
336,144,105089,1,0,0:0:0
336,144,105172,1,0,0:0:0
336,144,105255,1,8,0:0:0
416,192,105422,1,0,0:0:0
416,192,105505,1,0,0:0:0
416,192,105588,1,0,0:0:0
336,240,105755,1,0,0:0:0
336,240,105838,1,0,0:0:0
336,240,105922,1,8,0:0:0
256,288,106088,1,0,0:0:0
256,288,106172,1,0,0:0:0
256,288,106255,1,0,0:0:0
176,240,106422,1,0,0:0:0
176,240,106505,1,0,0:0:0
176,240,106588,1,8,0:0:0
96,192,106755,1,0,0:0:0
96,192,106838,1,0,0:0:0
96,192,106921,5,2,0:0:0
176,144,107088,1,0,0:0:0
176,144,107171,1,0,0:0:0
176,144,107255,1,0,0:0:0
256,96,107421,1,2,0:0:0
256,96,107505,1,0,0:0:0
256,96,107588,1,0,0:0:0
112,96,107755,1,8,0:0:0
256,288,107921,1,8,0:0:0
400,96,108088,1,6,0:0:0
128,320,108421,5,0,0:0:0
384,320,108588,1,0,0:0:0
384,64,108754,1,0,0:0:0
128,64,108921,1,0,0:0:0
256,192,109254,1,8,0:0:0
48,48,109588,5,4,0:0:0
144,48,109754,1,0,0:0:0
96,144,109921,1,8,0:0:0
192,144,110087,1,0,0:0:0
48,240,110254,1,0,0:0:0
144,240,110421,1,0,0:0:0
96,336,110587,1,8,0:0:0
192,336,110754,1,0,0:0:0
288,336,110921,1,0,0:0:0
384,336,111087,1,0,0:0:0
240,240,111254,1,8,0:0:0
336,240,111420,1,0,0:0:0
288,144,111587,1,0,0:0:0
384,144,111754,1,8,0:0:0
240,48,111920,1,8,0:0:0
336,48,112087,1,0,0:0:0
448,48,112254,5,2,0:0:0
448,144,112420,1,0,0:0:0
448,240,112587,1,8,0:0:0
448,336,112754,1,0,0:0:0
320,336,112920,1,0,0:0:0
320,240,113087,1,0,0:0:0
320,144,113253,1,8,0:0:0
320,48,113420,1,0,0:0:0
192,48,113587,1,0,0:0:0
192,144,113753,1,0,0:0:0
192,240,113920,1,8,0:0:0
192,336,114087,1,0,0:0:0
64,336,114253,1,0,0:0:0
64,240,114420,1,8,0:0:0
64,144,114586,1,8,0:0:0
64,144,114670,1,0,0:0:0
64,144,114753,1,8,0:0:0
64,144,114836,1,0,0:0:0
64,48,114920,5,4,0:0:0
192,48,115086,1,0,0:0:0
320,48,115253,1,8,0:0:0
448,48,115420,1,0,0:0:0
448,144,115587,1,0,0:0:0
320,144,115753,1,0,0:0:0
192,144,115920,1,8,0:0:0
64,144,116087,1,0,0:0:0
64,240,116253,1,0,0:0:0
192,240,116419,1,0,0:0:0
320,240,116586,1,8,0:0:0
448,240,116753,1,0,0:0:0
448,336,116919,1,0,0:0:0
320,336,117085,1,8,0:0:0
192,336,117253,1,8,0:0:0
64,336,117420,1,0,0:0:0
64,240,117586,6,0,B|144:160,1,96,2|0,0:0|0:0,0:0:0
256,240,117919,2,0,B|256:336,1,96,8|0,0:0|0:0,0:0:0
448,240,118252,2,0,B|368:160,1,96,0|0,0:0|0:0,0:0:0
256,240,118585,2,0,B|256:144,1,96,8|0,0:0|0:0,0:0:0
160,48,118919,2,0,B|192:144,1,96,0|0,0:0|0:0,0:0:0
352,48,119252,2,0,B|320:144,1,96,8|0,0:0|0:0,0:0:0
256,240,119585,2,0,B|256:336,1,96,0|8,0:0|0:0,0:0:0
448,336,119919,1,8,0:0:0
448,336,120002,1,0,0:0:0
448,336,120085,1,8,0:0:0
448,336,120169,1,0,0:0:0
448,336,120252,6,0,B|332:272|448:192,2,192,6|0|0,0:0|0:0|0:0,0:0:0
256,288,121085,1,8,0:0:0
256,96,121252,1,8,0:0:0
64,48,121418,2,0,B|180:112|64:192,2,192,2|0|0,0:0|0:0|0:0,0:0:0
160,192,122251,1,0,0:0:0
256,48,122418,1,8,0:0:0
352,192,122585,1,0,0:0:0
448,48,122751,1,8,0:0:0
256,192,123085,2,0,B|191:160|256:128,1,96,0|8,0:0|0:0,0:0:0
256,192,123418,2,0,B|266:120|316:172,1,96
256,192,123751,2,0,B|327:179|293:243,1,96,0|8,0:0|0:0,0:0:0
256,192,124084,2,0,B|289:256|218:243,1,96
256,192,124418,2,0,B|205:243|195:172,1,96,0|8,0:0|0:0,0:0:0
256,192,124751,1,0,0:0:0
64,336,125084,1,8,0:0:0
64,336,125251,1,8,0:0:0
64,48,125584,6,0,B|180:112|64:192,2,192,2|0|0,0:0|0:0|0:0,0:0:0
256,96,126417,1,8,0:0:0
256,288,126584,1,8,0:0:0
448,336,126750,2,0,B|332:272|448:192,2,192,2|0|0,0:0|0:0|0:0,0:0:0
352,192,127584,1,0,0:0:0
256,336,127750,1,8,0:0:0
160,192,127917,1,0,0:0:0
64,336,128083,1,8,0:0:0
256,192,128417,2,0,B|191:224|256:256,1,96,0|8,0:0|0:0,0:0:0
317,211,128750,1,0,0:0:0
293,139,128917,1,0,0:0:0
293,139,129000,1,0,0:0:0
293,139,129083,1,8,0:0:0
217,140,129250,1,0,0:0:0
217,140,129333,1,0,0:0:0
217,140,129416,1,8,0:0:0
195,212,129583,1,8,0:0:0
256,192,129750,2,0,B|191:224|256:256,2,96,0|8|0,0:0|0:0|0:0,0:0:0
300,210,130249,5,8,0:0:0
300,174,130332,1,0,0:0:0
274,147,130416,1,2,0:0:0
238,147,130499,1,0,0:0:0
211,173,130582,1,8,0:0:0
211,209,130665,1,0,0:0:0
237,236,130749,1,2,0:0:0
273,236,130832,1,0,0:0:0
256,192,130916,5,6,0:0:0
112,64,136248,6,0,B|-3:128|112:208,1,192,8|0,0:0|0:0,0:0:0
112,304,136748,1,0,0:0:0
208,304,136915,1,0,0:0:0
208,208,137081,1,0,0:0:0
304,208,137248,1,0,0:0:0
304,304,137415,1,8,0:0:0
400,320,137581,2,0,B|515:256|400:176,1,192
400,80,138081,1,0,0:0:0
304,80,138248,1,0,0:0:0
304,176,138414,1,0,0:0:0
208,176,138581,1,0,0:0:0
208,80,138748,1,0,0:0:0
112,80,138914,6,0,B|32:144,1,96,8|0,0:0|0:0,0:0:0
64,176,139248,2,0,B|144:112,1,96
176,144,139581,2,0,B|96:208,1,96,0|0,0:0|0:0,0:0:0
128,240,139914,2,0,B|208:176,1,96,0|8,0:0|0:0,0:0:0
240,208,140247,2,0,B|160:272,1,96
192,304,140581,2,0,B|272:240,1,96
304,272,140914,2,0,B|224:336,1,96,0|8,0:0|0:0,0:0:0
128,336,141247,1,8,0:0:0
128,336,141330,1,0,0:0:0
128,336,141414,1,8,0:0:0
128,336,141497,1,0,0:0:0
128,336,141580,6,0,B|64:336|64:272|64:208|128:208,1,192,6|0,0:0|0:0,0:0:0
448,144,142247,1,0,0:0:0
448,240,142414,1,0,0:0:0
128,176,142747,2,0,B|64:176|64:112|64:48|128:48,1,192,8|0,0:0|0:0,0:0:0
448,240,143413,1,0,0:0:0
448,144,143580,1,8,0:0:0
400,240,143747,1,0,0:0:0
400,144,143913,1,8,0:0:0
352,240,144080,1,0,0:0:0
384,336,144247,6,0,B|448:336|448:272|448:208|384:208,1,192,8|0,0:0|0:0,0:0:0
64,144,144914,1,0,0:0:0
64,240,145081,1,0,0:0:0
384,176,145414,2,0,B|448:176|448:112|448:48|384:48,1,192,8|0,0:0|0:0,0:0:0
64,240,146080,1,0,0:0:0
64,144,146247,1,8,0:0:0
112,240,146414,1,0,0:0:0
112,144,146580,1,8,0:0:0
160,240,146747,1,0,0:0:0
256,192,146913,6,0,B|352:192|467:240|352:288|256:288,1,288,8|0,0:0|0:0,0:0:0
256,192,147579,2,0,B|256:288|208:403|160:288|160:192,1,288,8|0,0:0|0:0,0:0:0
256,192,148246,2,0,B|160:192|45:144|160:96|256:96,1,288,8|0,0:0|0:0,0:0:0
256,192,148912,2,0,B|256:96|304:-19|352:96|352:192,1,288,8|0,0:0|0:0,0:0:0
256,192,149579,1,0,0:0:0
160,192,149745,1,8,0:0:0
112,272,149912,1,0,0:0:0
160,352,150079,1,8,0:0:0
256,352,150245,1,0,0:0:0
352,352,150412,1,8,0:0:0
400,272,150578,1,0,0:0:0
448,192,150745,1,8,0:0:0
400,112,150912,1,0,0:0:0
352,32,151078,1,8,0:0:0
256,32,151245,1,0,0:0:0
160,32,151412,1,8,0:0:0
112,112,151578,1,8,0:0:0
64,192,151745,1,0,0:0:0
64,192,151828,1,0,0:0:0
64,192,151911,1,8,0:0:0
256,192,152078,1,0,0:0:0
160,192,152245,6,0,B|176:105|192:192,1,96,6|8,0:0|0:0,0:0:0
256,288,152578,2,0,B|169:272|256:256,1,96,0|8,0:0|0:0,0:0:0
352,192,152911,2,0,B|336:279|320:192,1,96,0|8,0:0|0:0,0:0:0
256,96,153245,2,0,B|343:112|256:128,1,96,0|8,0:0|0:0,0:0:0
256,256,153578,1,0,0:0:0
255,128,153744,1,8,0:0:0
160,256,153911,1,0,0:0:0
160,128,154078,1,8,0:0:0
352,256,154244,1,0,0:0:0
352,128,154411,1,8,0:0:0
160,192,154578,1,8,0:0:0
352,192,154744,1,0,0:0:0
160,192,154911,6,0,B|176:279|192:192,1,96,0|8,0:0|0:0,0:0:0
256,96,155244,2,0,B|169:112|256:128,1,96,0|8,0:0|0:0,0:0:0
352,192,155577,2,0,B|336:105|320:192,1,96,0|8,0:0|0:0,0:0:0
256,288,155911,2,0,B|343:272|256:256,1,96,0|8,0:0|0:0,0:0:0
256,128,156244,1,0,0:0:0
255,255,156410,1,8,0:0:0
160,128,156577,1,0,0:0:0
160,256,156744,1,8,0:0:0
352,128,156910,1,0,0:0:0
352,256,157077,1,8,0:0:0
160,192,157244,1,8,0:0:0
352,192,157410,1,0,0:0:0
416,64,157577,6,0,B|534:192|416:320,1,288,2|0,0:0|0:0,0:0:0
96,320,158243,2,0,B|-22:192|96:64,1,288,2|0,0:0|0:0,0:0:0
192,64,158910,1,0,0:0:0
256,144,159077,1,8,0:0:0
256,240,159243,1,0,0:0:0
320,320,159410,1,8,0:0:0
192,320,159576,1,0,0:0:0
256,240,159743,1,8,0:0:0
256,144,159910,1,8,0:0:0
320,64,160076,1,0,0:0:0
432,48,160243,6,0,B|432:336,1,288,2|0,0:0|0:0,0:0:0
80,336,160909,2,0,B|368:336,1,288,2|0,0:0|0:0,0:0:0
80,48,161576,2,0,B|368:48,1,288,2|0,0:0|0:0,0:0:0
80,192,162243,1,0,0:0:0
432,192,162409,1,8,0:0:0
256,192,162576,1,8,0:0:0
256,192,162659,1,0,0:0:0
256,192,162742,1,8,0:0:0
256,192,162826,1,0,0:0:0
256,192,162909,12,0,167575,0:0:0
208,80,168241,6,0,B|43:192|208:304,2,287.999991416931,2|0|0,0:0|0:0|0:0,0:0:0
256,304,169074,1,8,0:0:0
256,80,169241,1,8,0:0:0
256,304,169408,1,2,0:0:0
304,80,169574,2,0,B|469:192|304:304,2,287.999991416931
256,352,170574,1,0,0:0:0
256,32,170907,5,4,0:0:0
32,352,171241,1,0,0:0:0
480,352,171574,1,8,0:0:0
32,32,171907,1,0,0:0:0
144,80,172074,1,8,0:0:0
256,32,172240,1,0,0:0:0
368,80,172407,1,8,0:0:0
480,32,172574,1,0,0:0:0
256,352,172907,1,8,0:0:0
32,192,173240,5,0,0:0:0
480,192,173573,1,2,0:0:0
32,192,174240,1,2,0:0:0
480,192,174906,1,2,0:0:0
32,192,175573,1,2,0:0:0
256,192,175906,1,8,0:0:0
256,192,175989,1,0,0:0:0
256,192,176073,1,8,0:0:0
256,192,176156,1,0,0:0:0
256,192,176239,1,4,0:0:0
