osu file format v5

[General]
AudioFilename: 2-00 a.m..mp3
AudioLeadIn: 0
PreviewTime: 61097
Countdown: 1
SampleSet: Soft
StackLeniency: 0.7
Mode: 0
LetterboxInBreaks: 1
EditorBookmarks: 24339,43160,51650,88159,96650,120140

[Metadata]
Title:2:00 a.m.
Artist:Tomoko Sasaki
Creator:Drezus
Version:Insane
Source:Super Smash Bros. Brawl
Tags:super smash bros brawl animal crossing wild world ds wii nintendo

[Difficulty]
HPDrainRate:6
CircleSize:6
OverallDifficulty:8
SliderMultiplier:2
SliderTickRate:2

[Events]
//Background and Video events
0,0,"kk.png"
1,-500,"brawl.flv"
//Break Periods
2,43218,51475
2,88217,96307
//Storyboard Layer 0 (Background)
//Storyboard Layer 1 (Failing)
//Storyboard Layer 2 (Passing)
//Storyboard Layer 3 (Foreground)
//Storyboard Sound Samples
//Background Colour Transformations
3,100,87,125,196

[TimingPoints]
-10,566.037735849057,4,2,0,100,1

[Colours]
Combo1 : 215,189,113
Combo2 : 67,119,182
Combo3 : 105,154,97
Combo4 : 175,73,73

[HitObjects]
32,352,24895,1,0
64,352,25037,2,0,B|160:384|96:192|224:256,1,200,0|2
224,224,25744,1,0
288,224,26027,1,0
320,224,26169,2,0,B|416:256|352:64|480:128,1,200,0|2
480,96,26876,1,0
480,160,27159,1,0
480,224,27442,1,2
448,256,27584,1,0
352,288,28008,1,0
288,288,28291,1,0
288,224,28574,5,8
288,224,28857,1,8
128,192,29423,5,0
128,256,29706,1,2
160,288,29848,1,0
256,352,30273,1,0
256,288,30556,2,0,B|256:192|352:128|448:160|448:160,1,250,0|2
480,160,31405,1,0
480,224,31688,2,0,B|448:352|320:384|224:288,1,300,0|0
192,256,32820,1,2
128,224,33103,1,8
64,192,33386,1,6
32,160,33527,1,8
64,64,33952,5,0
128,64,34235,1,2
128,96,34376,1,0
128,224,34801,1,0
128,288,35084,1,0
192,288,35367,1,8
192,288,35650,1,8
352,288,36216,1,0
352,224,36499,1,2
352,192,36640,1,0
352,64,37065,1,0
288,64,37348,1,0
224,64,37631,1,8
224,64,37914,1,8
64,96,38480,5,0
64,160,38763,1,2
64,192,38905,1,0
64,320,39329,1,0
128,352,39612,2,0,B|224:352|288:320|352:224,1,250,0|2
352,192,40461,1,0
352,128,40744,2,0,B|320:0|96:0|96:128,1,300,0|0
96,160,41876,1,2
96,224,42159,1,8
128,288,42442,1,2
160,320,42584,1,2
200,336,42725,1,10
272,336,43008,1,6
192,288,52065,5,8
256,288,52348,1,8
320,288,52631,1,8
384,224,52914,2,2,B|320:224,1,50
256,224,53339,1,8
224,224,53480,1,8
160,224,53763,1,6
96,224,54046,1,6
160,160,54329,5,8
224,160,54612,2,2,B|288:160,1,50
320,160,54895,1,8
320,160,55037,1,8
320,96,55320,1,8
256,96,55603,2,2,B|192:96,2,50
256,96,56027,1,6
192,96,56310,1,6
256,192,56876,12,14,60556
32,192,61122,5,0
64,192,61263,2,0,B|128:256|160:64|256:160,1,200,0|2
256,160,61971,1,0
256,224,62254,1,0
288,224,62395,2,0,B|352:288|384:96|480:192,1,200,0|2
480,192,63103,1,0
480,128,63386,1,0
416,128,63669,1,2
384,128,63810,1,0
256,128,64235,1,0
256,192,64518,5,8
192,224,64801,1,2
160,224,64942,1,8
64,256,65367,1,0
64,192,65650,5,0
128,192,65933,1,2
160,192,66074,1,0
256,128,66499,1,0
256,192,66782,2,0,B|256:288|352:352|448:320|448:320,1,250,0|2
480,320,67631,1,0
480,256,67914,2,0,B|399:292|320:288|288:192|288:96,1,300,0|0
352,64,69046,5,8
288,64,69329,1,8
224,64,69612,1,2
192,64,69754,1,8
64,64,70178,5,0
64,128,70461,1,2
64,160,70603,1,0
64,288,71027,1,0
128,288,71310,1,0
192,288,71593,1,8
192,288,71876,1,8
352,288,72442,1,0
416,288,72725,1,2
448,288,72867,1,0
448,160,73291,1,0
448,96,73574,1,0
384,96,73857,1,8
384,96,74140,1,8
224,96,74706,5,0
192,160,74990,1,2
192,192,75131,1,0
192,320,75556,1,0
224,384,75839,2,0,B|320:384|384:352|448:256,1,250,0|2
448,224,76688,1,0
448,160,76971,2,0,B|416:32|192:32|192:160,1,300,0|0
192,192,78103,1,2
192,256,78386,1,8
224,320,78669,1,2
256,352,78810,1,2
296,368,78952,1,10
368,368,79235,5,6
368,288,79518,1,2
368,256,79659,1,0
240,256,80084,1,0
176,256,80367,1,0
176,192,80650,1,2
176,160,80791,1,0
176,32,81216,1,0
112,32,81499,1,4
384,160,82631,5,8
320,160,82914,1,2
288,192,83056,1,8
160,192,83480,1,0
160,128,83763,5,6
224,128,84046,1,2
256,128,84188,1,0
256,256,84612,1,0
256,320,84895,1,0
320,320,85178,1,2
352,320,85320,1,0
480,320,85744,1,0
480,384,86027,1,4
192,256,87159,5,8
256,256,87442,1,2
288,224,87584,1,8
416,224,88008,1,14
480,64,97348,5,0
448,64,97489,2,0,B|352:32|416:224|288:160,1,200,0|2
288,160,98197,1,0
224,192,98480,1,0
192,192,98622,2,0,B|96:160|160:352|32:288,1,200,0|2
32,288,99329,1,0
96,256,99612,5,0
96,192,99895,1,2
96,160,100037,1,0
96,96,100320,1,2
128,96,100461,1,0
192,96,100744,1,0
192,32,101027,1,8
192,32,101169,1,8
192,32,101310,1,8
32,64,101876,5,0
64,64,102018,2,0,B|160:32|96:224|224:160,1,200,0|2
224,160,102725,1,0
288,192,103008,1,0
320,192,103150,2,0,B|416:160|352:352|480:288,1,200,0|2
480,288,103857,1,0
416,256,104140,5,0
416,192,104423,1,2
384,192,104565,1,0
320,192,104848,1,2
288,192,104989,1,0
288,128,105273,1,0
224,128,105556,1,8
224,128,105697,1,8
224,128,105839,1,8
256,192,106405,12,10,108103
256,288,108669,5,0
192,256,108952,1,2
224,224,109093,1,0
288,192,109376,1,2
256,160,109518,1,0
256,96,109801,1,0
192,96,110084,1,8
192,96,110225,1,8
192,96,110367,1,8
64,96,110933,5,0
64,160,111216,1,2
64,192,111357,1,0
96,256,111640,1,2
96,288,111782,1,0
160,320,112065,2,0,B|256:320|320:288|384:192,1,250,0|2
384,160,112914,1,0
384,96,113197,2,0,B|352:-32|128:-32|128:96,1,300,0|0
96,96,114329,1,2
96,160,114612,1,8
112,240,114895,1,2
144,272,115037,1,2
184,288,115178,1,10
256,320,115461,5,4
320,352,115744,1,2
352,352,115886,1,0
416,352,116169,1,2
448,320,116310,1,0
480,256,116593,2,0,B|512:128|448:32|352:64,1,250,0|2
352,48,117442,1,0
272,32,117725,2,0,B|176:16|48:96|64:224,1,300,0|0
80,272,118857,1,2
128,336,119140,1,8
208,352,119423,1,2
240,336,119565,1,2
256,304,119706,1,10
256,224,119989,5,6
