osu file format v9

[General]
AudioFilename: Wandering Way - Rogue Galaxy.mp3
AudioLeadIn: 2000
PreviewTime: 9526
Countdown: 0
SampleSet: Soft
StackLeniency: 0.7
Mode: 0
LetterboxInBreaks: 1

[Editor]
DistanceSpacing: 0.8
BeatDivisor: 6
GridSize: 4

[Metadata]
Title:Wandering Way
Artist:Tomohito Nishiura
Creator:Lightgazer
Version:Hard
Source:Rogue Galaxy
Tags:Level-5

[Difficulty]
HPDrainRate:6
CircleSize:5
OverallDifficulty:6
ApproachRate:7
SliderMultiplier:1.6
SliderTickRate:1

[Events]
//Background and Video events
0,0,"BG_Hard.jpg"
//Break Periods
//Storyboard Layer 0 (Background)
//Storyboard Layer 1 (Fail)
//Storyboard Layer 2 (Pass)
//Storyboard Layer 3 (Foreground)
//Storyboard Sound Samples
//Background Colour Transformations
3,100,226,226,226

[TimingPoints]
790,363.636363636364,3,2,1,40,1,0
4062,-100,3,2,1,50,0,0
4426,-100,3,2,1,30,0,0
4790,-100,3,2,1,20,0,0
5153,-100,3,2,1,40,0,0
8426,-100,3,2,1,50,0,0
8790,-100,3,2,1,30,0,0
9153,-100,3,2,1,20,0,0
9517,-100,3,2,1,40,0,0
17153,-100,3,2,1,50,0,0
17517,-100,3,2,1,40,0,0
17880,-100,3,2,1,30,0,0
18244,-100,3,2,1,20,0,0
18608,-100,3,2,1,40,0,0
25880,-100,3,2,1,50,0,0
26244,-100,3,2,1,30,0,0
26608,-100,3,2,1,20,0,0
26971,-100,3,2,1,40,0,0
34608,-100,3,2,1,50,0,0
34971,-100,3,2,1,30,0,0
35153,-100,3,2,1,40,0,0
35517,-100,3,2,1,30,0,0
35699,-100,3,2,1,40,0,0
44788,-100,3,2,1,60,0,0
45515,-100,3,2,1,60,0,0
46242,-100,3,2,1,40,0,0
46606,-100,3,2,1,50,0,0
46969,-100,3,2,1,60,0,0
47333,-100,3,2,1,40,0,0
47697,-100,3,2,1,60,0,0
48788,-100,3,2,1,50,0,0
49151,-100,3,2,1,60,0,0
49878,-100,3,2,1,60,0,0
50606,-100,3,2,1,40,0,0
50969,-100,3,2,1,50,0,0
51333,-100,3,2,1,40,0,0
51697,-100,3,2,1,60,0,0
52060,-100,3,2,1,50,0,0
52062,-100,3,2,1,50,0,0
52426,-100,3,2,1,30,0,0
52790,-100,3,2,1,20,0,0
53151,-100,3,2,1,30,0,0
53153,-100,3,2,1,40,0,0
56426,-100,3,2,1,50,0,0
56790,-100,3,2,1,30,0,0
57153,-100,3,2,1,20,0,0
57517,-100,3,2,1,40,0,0
60790,-100,3,2,1,50,0,0
61153,-100,3,2,1,30,0,0
61517,-100,3,2,1,20,0,0
61880,-100,3,2,1,40,0,0
69517,-100,3,2,1,50,0,0
69880,-100,3,2,1,40,0,0
70244,-100,3,2,1,30,0,0
70608,-100,3,2,1,40,0,0
79335,-100,3,2,1,50,0,0
79699,-100,3,2,1,30,0,0
80062,-100,3,2,1,40,0,0
100062,-100,3,2,1,50,0,0
100426,-100,3,2,1,30,0,0
100608,-100,3,2,1,40,0,0
100790,-100,3,2,1,30,0,0
101153,-100,3,2,1,40,0,0
104426,-100,3,2,1,50,0,0
104790,-100,3,2,1,30,0,0
104971,-100,3,2,1,40,0,0
105153,-100,3,2,1,30,0,0
105517,-100,3,2,1,40,0,0

[Colours]
Combo1 : 191,118,45
Combo2 : 181,106,106
Combo3 : 171,150,92
Combo4 : 221,132,98
Combo5 : 221,213,174

[HitObjects]
256,56,790,1,0
188,164,1153,1,2
188,164,1335,1,0
188,164,1517,1,2
124,56,1880,5,0
120,184,2244,2,0,B|88:148|128:104,2,80,2|0|2
184,296,2971,5,0
256,192,3335,1,2
256,192,3517,1,0
256,192,3699,1,2
328,296,4062,5,2
400,128,4426,1,10
480,296,4789,1,10
400,188,5153,5,0
284,240,5517,2,0,B|332:240|332:184,2,80,2|2|2
156,240,6244,5,0
116,116,6608,1,2
156,160,6790,1,2
196,116,6971,1,2
324,112,7335,5,0
452,116,7699,2,0,B|401:121|401:65,2,80,2|2|2
256,112,8426,5,2
176,264,8790,1,10
336,264,9153,1,10
444,192,9517,5,2
316,192,9880,2,0,B|372:108|280:44,1,160,2|2
168,48,10608,1,8
96,152,10971,2,0,B|44:160|96:204,3,53.3333333333333,2|2|2|2
180,264,11699,5,8
292,328,12062,2,0,B|348:328,3,53.3333333333333,2|2|2|2
472,324,12789,1,0
472,196,13153,2,0,B|472:100|368:100,1,160,2|0
256,44,13880,1,2
176,120,14244,6,0,B|312:216,1,160,2|2
400,288,14971,1,8
272,292,15335,2,0,B|256:228,3,53.3333333333333,0|2|0|2
256,112,16062,5,8
356,192,16426,2,0,B|356:248,3,53.3333333333333,0|2|0|2
208,256,17153,5,0
308,256,17517,1,10
208,128,17880,1,2
308,128,18244,1,10
420,192,18608,5,0
292,184,18971,1,10
164,188,19335,1,10
76,280,19699,2,0,B|96:293|131:297,3,53.3333333333333,0|2|2|2
256,300,20426,5,8
384,300,20789,2,0,B|408:300|432:276,3,53.3333333333333,0|2|2|2
304,260,21517,5,8
176,260,21880,1,2
216,248,22002,1,0
244,216,22123,1,2
256,176,22244,1,2
384,176,22608,5,0
332,68,22971,2,0,B|172:68,1,160,0|2
40,72,23699,1,2
40,200,24062,2,0,B|72:200|88:200|88:176,3,53.3333333333333,2|2|0|2
108,312,24789,5,0
164,196,25153,2,0,B|108:196|108:172,3,53.3333333333333,2|2|0|2
96,56,25880,1,2
32,176,26244,1,10
160,176,26608,1,10
228,68,26971,5,0
280,104,27153,1,2
228,140,27335,1,0
280,176,27517,1,2
228,212,27699,1,0
280,248,27880,1,10
228,284,28062,1,10
112,336,28426,5,0
60,300,28608,1,2
108,260,28789,1,0
60,216,28971,1,2
108,172,29153,1,10
164,56,29517,5,0
208,100,29699,1,2
252,56,29880,1,0
300,100,30062,1,2
344,56,30244,1,10
472,68,30608,6,0,B|416:126,1,80,0|10
376,176,30971,2,0,B|320:232,1,80,8|10
276,280,31335,1,10
156,328,31699,5,0
108,288,31880,1,2
156,248,32062,1,0
108,204,32244,1,2
156,160,32426,1,10
56,84,32789,5,0
112,32,32971,1,2
128,104,33153,1,0
56,84,33335,1,2
112,32,33517,1,10
224,36,33880,6,0,B|292:88,1,80,0|10
340,124,34244,2,0,B|272:192,1,80,0|10
256,240,34608,1,10
192,352,34971,1,0
256,352,35153,1,10
384,352,35517,1,2
424,304,35699,6,0,B|476:244,1,80,10|10
424,204,36062,2,0,B|371:264,1,80,2|2
320,224,36426,2,0,B|384:156,1,80,10|10
328,120,36790,1,2
220,196,37153,5,0
172,156,37335,1,10
124,196,37517,1,10
72,160,37699,1,10
20,196,37880,1,2
120,272,38244,6,0,B|76:308|132:360,1,80,2|10
168,312,38608,1,2
208,260,38790,1,10
248,312,38971,1,8
376,312,39335,5,0
424,268,39517,1,10
376,228,39699,1,8
324,268,39880,2,0,B|264:208,1,80,2|10
164,140,40426,5,0
116,100,40608,1,2
164,56,40790,1,10
212,100,40971,2,0,B|276:168,1,80,10|10
256,288,41517,5,0
256,224,41699,1,2
192,224,41880,1,0
192,288,42062,1,10
192,288,42244,1,10
84,220,42608,5,8
36,176,42790,1,2
84,136,42971,1,8
132,180,43153,1,2
180,136,43335,1,10
132,92,43517,1,10
180,52,43699,2,0,B|244:104,1,80,8|2
288,56,44062,1,6
256,180,44426,5,2
252,308,44790,2,0,B|276:468|360:-20|436:472|472:308,1,320,10|10
472,184,45880,1,2
344,176,46244,2,0,B|360:220|388:160,3,53.3333333333333,0|2|0|10
360,304,46971,5,2
152,304,47335,1,0
152,80,47699,1,10
360,80,48062,1,8
424,192,48426,1,8
296,192,48790,5,2
256,72,49153,2,0,B|232:-88|148:400|72:-92|36:72,1,320,10|10
36,196,50244,1,0
36,324,50608,6,0,B|96:324,3,53.3333333333333,2|2|2|2
188,240,51335,2,0,B|256:168|340:252,1,160,0|2
448,284,52062,1,2
448,104,52426,1,2
352,192,52790,1,0
256,272,53153,5,0
148,344,53517,2,0,B|40:288|160:228,1,160,0|2
256,132,54244,1,0
136,176,54608,2,0,B|156:144|180:180,3,53.3333333333333,0|2|2|2
256,272,55335,5,2
376,176,55699,2,0,B|356:144|332:180,3,53.3333333333333,0|2|2|2
256,272,56426,5,2
256,144,56790,1,8
256,272,57153,1,10
256,144,57517,5,0
344,52,57880,2,0,B|264:-16|184:72,2,160,0|2|0
352,180,58971,2,0,B|392:184|360:212,3,53.3333333333333,2|2|2|2
256,280,59699,1,0
152,212,60062,2,0,B|118:182|162:178,3,53.3333333333333,2|2|2|2
256,92,60790,5,2
344,280,61153,1,10
168,280,61517,1,10
88,92,61880,1,10
164,192,62244,5,2
256,280,62608,2,0,B|344:344|360:224,1,160,2|0
360,96,63335,2,0,B|376:56|328:56,3,53.3333333333333,2|0|2|0
256,152,64062,5,10
256,280,64426,2,0,B|268:244|316:276,3,53.3333333333333,2|0|2|0
392,356,65153,1,10
392,228,65517,2,0,B|424:188|376:176,3,53.3333333333333,0|2|2|2
392,56,66244,1,2
296,140,66608,5,0
216,240,66971,1,2
296,340,67335,1,2
376,240,67699,2,0,B|416:232|408:192,3,53.3333333333333,2|0|2|0
296,140,68426,37,0
200,200,68790,1,0
172,176,68911,1,10
144,200,69032,1,0
172,224,69153,1,10
56,280,69517,1,10
180,312,69880,2,0,B|256:260|348:316,1,160,10|10
460,292,70608,5,0
468,164,70971,2,0,B|408:164,3,53.3333333333333,2|10|2|10
376,112,71517,1,10
336,160,71699,1,2
300,212,71880,1,8
264,264,72062,1,2
192,332,72426,5,0
64,328,72790,1,2
60,200,73153,2,0,B|124:200,3,53.3333333333333,2|10|2|10
116,136,73699,1,2
164,92,73880,2,0,B|228:172,2,80,10|0|10
292,116,74608,2,0,B|352:184,1,80,0|2
344,240,74971,5,0
384,288,75153,1,2
344,336,75335,1,0
300,288,75517,1,2
256,240,75699,1,10
256,240,75880,1,10
212,284,76062,5,0
180,344,76244,1,2
148,284,76426,1,0
116,344,76608,1,2
84,284,76790,1,10
84,284,76971,1,10
84,224,77153,6,0,B|84:136,1,80,0|2
84,80,77517,1,0
124,28,77699,1,2
168,80,77880,1,8
208,28,78062,1,10
248,80,78244,6,0,B|332:80,1,80,0|2
368,28,78608,1,0
412,80,78790,1,2
460,128,78971,1,10
412,176,79153,1,10
368,128,79335,1,0
396,244,79699,5,0
328,344,80062,1,2
256,244,80426,1,0
176,344,80790,2,0,B|108:344,3,53.3333333333333,0|2|2|2
176,232,81517,5,2
128,188,81699,2,0,B|92:212|40:188,2,80,0|8|0
176,144,82244,1,2
232,28,82608,37,0
284,64,82790,2,0,B|364:64,3,80,2|8|2|10
488,100,83699,5,0
480,164,83880,1,2
416,156,84062,1,0
404,220,84244,1,2
352,184,84426,2,0,B|332:128|272:176,1,80,0|10
236,128,84790,5,0
200,76,84971,1,2
136,80,85153,1,0
136,80,85335,1,10
136,80,85517,1,8
136,80,85699,1,10
116,140,85880,6,0,B|76:220,1,80,0|2
80,276,86244,2,0,B|168:276,1,80,0|10
160,340,86608,2,0,B|264:340,1,80,0|10
244,276,86971,6,0,B|348:276,1,80,0|10
368,228,87335,1,2
328,176,87517,1,10
284,128,87699,1,6
256,192,88062,12,2,91699
72,108,92426,5,0
120,64,92608,2,0,B|196:24|276:64,1,160,2|0
272,128,93153,1,0
212,148,93335,2,0,B|108:164|140:276,1,160,2|0
100,316,93880,1,0
164,316,94062,1,2
164,316,94244,1,10
164,316,94426,1,10
228,316,94608,6,0,B|260:264|300:328,1,80,0|10
356,312,94971,1,0
396,264,95153,1,10
356,216,95335,1,0
316,168,95517,1,10
280,112,95699,2,0,B|316:32,1,80,0|10
252,20,96062,2,0,B|216:100,1,80,2|10
232,156,96426,1,6
256,280,96790,5,0
136,240,97153,1,0
176,192,97335,1,2
136,140,97517,1,0
256,96,97880,5,2
376,140,98244,1,0
336,192,98426,1,2
376,240,98608,1,0
256,192,98971,5,2
228,320,99335,1,0
180,276,99517,1,2
132,320,99699,1,0
124,192,100062,5,2
132,64,100426,1,0
180,108,100608,1,2
228,64,100790,1,0
256,192,101153,5,0
380,224,101517,1,2
332,276,101699,1,0
284,320,101880,1,2
256,192,102244,5,0
132,160,102608,1,2
176,116,102790,1,0
220,72,102971,1,2
256,192,103335,5,0
324,84,103699,1,2
388,84,103880,1,0
356,140,104062,1,2
256,192,104426,5,0
188,300,104790,1,2
124,300,104971,1,0
156,244,105153,1,2
256,192,105517,5,6
