osu file format v9

[General]
AudioFilename: The Ruined Castle.mp3
AudioLeadIn: 1500
PreviewTime: 3160
Countdown: 0
SampleSet: Soft
StackLeniency: 0.7
Mode: 0
LetterboxInBreaks: 1

[Editor]
DistanceSpacing: 0.8
BeatDivisor: 4
GridSize: 4

[Metadata]
Title:The Ruined Castle
Artist:Tomohito Nishiura
Creator:Lightgazer
Version:Easy
Source:Rogue Galaxy
Tags:Level-5

[Difficulty]
HPDrainRate:2
CircleSize:3
OverallDifficulty:2
ApproachRate:3
SliderMultiplier:1.5
SliderTickRate:2

[Events]
//Background and Video events
0,0,"rogue-galaxy-jester-kisala-amp-zegram-wallpaper.jpg"
//Break Periods
//Storyboard Layer 0 (Background)
//Storyboard Layer 1 (Fail)
//Storyboard Layer 2 (Pass)
//Storyboard Layer 3 (Foreground)
//Storyboard Sound Samples
//Background Colour Transformations
3,100,163,162,255

[TimingPoints]
830,582.52427184466,4,2,1,25,1,0
80490,-100,4,2,1,14,0,0
80635,-100,4,2,1,12,0,0
80635,-100,4,2,1,13,0,0
80781,-100,4,2,1,11,0,0
80927,-100,4,2,1,10,0,0
81072,-100,4,2,1,9,0,0
81218,-100,4,2,1,8,0,0
81363,-100,4,2,1,7,0,0
81509,-100,4,2,1,6,0,0
81655,-100,4,2,1,5,0,0

[Colours]
Combo1 : 186,44,54
Combo2 : 64,78,96
Combo3 : 33,103,160
Combo4 : 245,223,99
Combo5 : 131,98,52

[HitObjects]
192,80,830,2,0,B|216:48|256:32|296:48|320:80,1,150,0|4
112,208,2577,2,0,B|208:208,1,75,2|0
192,268,3160,6,0,B|216:300|256:316|296:300|320:268,1,150,0|4
456,72,4907,2,0,B|360:72,1,75,2|0
320,72,5490,6,0,B|296:40|256:24|216:40|192:72,1,150,0|4
192,192,6655,1,0
320,192,7237,1,2
320,312,7820,6,0,B|296:344|256:360|216:344|192:312,1,150,0|4
88,264,8985,2,0,B|88:339,2,75,0|2|2
160,168,10150,6,0,B|224:248,1,75
208,288,10732,1,4
312,224,11315,2,0,B|360:160,1,75,0|2
392,112,11897,1,2
288,48,12480,5,0
232,48,12771,2,0,B|136:48,1,75,0|4
96,152,13645,1,0
96,208,13936,2,0,B|176:272,1,75,2|2
264,304,14810,5,0
384,304,15393,1,4
432,192,15975,2,0,B|376:248|304:176|304:176|224:88|152:168,1,300,2|0
128,192,17431,5,0
88,232,17723,2,0,B|88:320,1,75,4|2
128,344,18305,1,0
218,265,18888,2,0,B|298:265,1,75
256,192,19470,12,0,22965
256,40,24130,5,0
168,120,24713,1,4
128,232,25296,2,0,B|184:288|256:216|256:216|336:128|408:208,1,300,2|0
448,192,26752,5,0
496,224,27043,2,0,B|496:312,1,75,4|2
448,336,27626,1,0
336,304,28208,2,0,B|336:208,1,75,0|0
256,192,28791,12,0,32286
48,320,33451,6,0,B|96:240,1,75,0|2
144,256,34033,1,4
256,256,34616,1,0
200,160,35198,1,2
256,48,35781,5,0
312,48,36072,2,0,B|352:136,1,75,2|4
256,192,36946,2,0,B|160:192,3,75,0|2|2|2
120,192,38111,6,0,B|120:288,2,75,0|2|4
192,88,39276,1,0
320,88,39859,1,2
256,192,40441,6,0,B|256:280,2,75,0|2|4
256,128,41315,2,0,B|256:48,1,75,2|0
144,104,42189,1,0
32,136,42771,6,0,B|72:172|40:204|40:204|0:244|40:280,1,150,0|4
152,272,43936,2,0,B|216:200|280:272|280:272|352:360|424:280,1,300,2|0
448,248,45393,5,0
448,192,45684,2,0,B|448:104,2,75,4|2|0
332,192,46849,2,0,B|257:192,1,75
256,192,47431,12,0,50927
256,344,52092,5,0
152,280,52674,1,4
72,192,53257,2,0,B|128:120|192:192|192:192|264:280|352:192,1,300,2|0
388,208,54713,6,0,B|484:208,3,75,0|4|2|2
464,88,56169,1,0
400,88,56461,1,0
256,192,56752,12,0,60247
192,88,61412,6,0,B|216:56|256:40|296:56|320:88,1,150,0|4
256,192,62577,1,0
376,192,63160,1,2
320,296,63742,6,0,B|296:328|256:344|216:328|192:296,1,150,0|4
136,192,64907,2,0,B|88:112,3,75,0|2|2|2
96,64,66072,6,0,B|272:64,1,150,0|4
352,128,67237,2,0,B|400:208,1,75,0|2
416,248,67820,1,0
320,328,68402,5,0
256,328,68694,1,0
192,328,68985,1,4
256,224,69567,2,0,B|256:144,3,75,0|0|2|2
256,88,70732,5,0
224,40,71024,1,2
288,40,71315,1,4
256,152,71897,5,0
256,216,72189,1,2
256,280,72480,1,2
320,176,73063,6,0,B|400:176,2,75,0|2|4
192,176,74228,2,0,B|96:176,2,75,0|2|2
256,280,75393,5,0
320,176,75975,1,4
384,72,76558,2,0,B|328:0|256:68|256:68|184:0|128:72,1,300,0|0
104,128,78014,6,0,B|72:152|56:192|72:232|104:256,1,150,0|0
148,296,78888,1,2
192,184,79470,2,0,B|216:216|256:232|296:216|320:184,1,150,0|0
256,192,80198,12,4,82383
