osu file format v7

[General]
AudioFilename: The Great Don Paolo.mp3
AudioLeadIn: 0
PreviewTime: 3378
Countdown: 1
SampleSet: Normal
StackLeniency: 0.9
Mode: 0
LetterboxInBreaks: 0

[Editor]
DistanceSpacing: 0.800000011920929
BeatDivisor: 3
GridSize: 16

[Metadata]
Title:The Great Don Paolo
Artist:Tomohito Nishiura
Creator:RandomJibberish
Version:Normal
Source:Professor Layton and the Curious Village
Tags:NoHItter

[Difficulty]
HPDrainRate:3
CircleSize:3
OverallDifficulty:3
SliderMultiplier:1.4
SliderTickRate:1

[Events]
//Background and Video events
0,0,"poalobg.png"
//Break Periods
2,59168,64198
//Storyboard Layer 0 (Background)
//Storyboard Layer 1 (Fail)
//Storyboard Layer 2 (Pass)
//Storyboard Layer 3 (Foreground)
//Storyboard Sound Samples
//Background Colour Transformations
3,100,78,44,77

[TimingPoints]
3397,370.484717505403,4,1,0,40,1,0
120036,-100,4,2,0,0,0,0

[Colours]
Combo1 : 136,114,89
Combo2 : 120,61,135
Combo3 : 68,62,183
Combo4 : 174,23,23

[HitObjects]
256,192,3397,1,0
64,80,4137,1,2
64,304,4878,1,8
256,192,6360,5,0
448,80,7101,1,2
448,304,7842,1,8
64,64,9324,5,0
176,64,9695,1,2
288,64,10065,1,8
400,64,10436,1,2
464,160,10806,5,0
352,160,11177,1,2
240,160,11547,1,8
128,160,11918,1,2
64,256,12288,5,0
176,256,12659,1,2
288,256,13029,1,8
400,256,13400,1,2
464,336,13770,5,0
352,336,14141,1,2
240,336,14511,1,8
128,336,14882,1,2
192,272,15252,6,2,B|336:272,1,140
256,192,15993,1,8
256,192,16363,1,8
320,112,16734,6,2,B|160:112,1,140
256,192,17475,1,8
256,192,17845,1,8
144,160,18216,6,0,B|256:64|256:288|400:192,1,280,2|8
387,199,19327,1,0
387,199,19698,6,0,B|275:103|275:327|131:231,1,280,2|8
144,238,20809,1,0
64,320,21180,6,2,B|64:176,1,140
160,96,21921,2,8,B|160:240,1,140
256,272,22662,2,0,B|256:128,2,140
347,333,23773,1,2
448,336,24144,6,2,B|448:176,1,140
352,96,24885,2,8,B|352:240,1,140
256,256,25626,2,0,B|256:112,3,140,0|0|0|2
320,64,27108,5,8
96,64,27848,1,0
96,288,28589,1,8
320,288,29330,1,0
416,96,30071,5,8
192,96,30812,1,0
192,320,31553,1,8
416,320,32294,1,0
416,96,33035,6,0,B|352:96,3,46.6666666666667
432,192,33776,2,8,B|352:192,3,46.6666666666667
278,224,34517,2,0,B|214:224,3,46.6666666666667
80,192,35258,2,8,B|160:192,3,46.6666666666667
96,96,35999,6,0,B|160:96,3,46.6666666666667
80,192,36740,2,8,B|160:192,3,46.6666666666667
234,224,37481,2,0,B|298:224,3,46.6666666666667
432,192,38222,2,8,B|352:192,3,46.6666666666667
320,112,38963,6,0,B|229:94|54:52|-2:235|52:343|116:370|239:384|230:317|268:294,1,560
349,280,40815,2,8,B|353:181|240:192,1,140
240,80,41556,1,0
368,48,41927,5,0
368,272,42668,1,8
368,272,43038,1,8
368,160,43409,1,2
368,160,43779,1,2
368,272,44150,1,0
368,272,44520,1,0
256,320,44891,6,2,B|256:160,1,140
192,272,45632,2,2,B|192:128,1,140
128,224,46373,2,2,B|128:64,1,140
233,45,47114,2,0,B|297:45,3,46.6666666666667,0|0|0|4
368,80,47855,6,2,B|304:240|240:16|160:32|128:176,1,280
144,224,48966,1,8
144,336,49337,1,0
144,224,49707,1,8
256,224,50078,1,0
368,224,50448,1,8
368,336,50819,6,2,B|464:256|464:144|320:64,1,280
144,64,52300,2,0,B|48:144|48:256|192:336,1,280
144,304,53782,6,2,B|208:144|272:368|352:352|384:208,1,280
368,160,54894,1,8
368,48,55264,1,0
368,160,55635,1,8
256,160,56005,1,0
144,160,56376,1,8
144,48,56746,6,2,B|48:128|48:240|192:320,1,280
368,288,58228,2,0,B|464:208|464:96|320:16,1,280,0|4
80,304,65638,5,0
80,192,66008,1,8
80,80,66379,2,2,B|384:80,1,280
464,80,67490,5,8
416,176,67861,1,2
337,256,68231,1,8
240,304,68602,2,2,B|44:264|33:14|192:0|313:8|313:162|192:160,1,560,2|10
432,80,70825,5,0
464,192,71195,1,8
432,304,71566,2,2,B|128:304,1,280,2|0
48,304,72677,5,8
96,208,73048,1,2
175,128,73418,1,8
272,80,73789,2,2,B|468:120|479:370|320:384|199:376|199:222|320:224,1,560,2|10
224,160,75641,1,2
224,160,76012,1,8
160,304,77493,5,8
160,192,77864,1,8
160,192,78234,1,0
224,80,78975,5,8
224,80,79346,1,8
224,192,79716,1,0
288,304,80457,5,8
288,192,80828,1,8
288,192,81198,1,0
352,80,81939,5,8
352,80,82310,1,8
352,192,82680,2,2,B|352:336,2,140,2|2|8
240,192,83792,5,8
128,192,84162,1,0
352,192,84903,5,8
464,240,85274,1,8
368,320,85644,1,0
352,80,86385,5,8
240,80,86756,1,8
128,80,87126,1,0
320,192,87867,5,8
208,192,88238,1,8
96,192,88608,2,2,B|192:80,1,140
192,192,89349,2,2,B|288:80,1,140
288,192,90090,6,2,B|384:80,1,140
384,192,90831,2,8,B|272:320,1,140
288,192,91572,6,8,B|192:304,1,140
192,192,92313,2,0,B|80:320,2,140
304,192,93424,2,0,B|464:192,2,140
192,192,94536,2,0,B|48:192,1,140
144,256,95277,5,0
144,144,95647,1,0
256,144,96018,5,0
256,256,96388,1,0
368,256,96759,5,0
368,144,97129,1,0
256,192,97500,5,2
256,192,97870,1,2
320,80,98241,5,0
208,80,98611,1,0
208,192,98982,5,0
320,192,99352,1,0
320,304,99723,5,0
208,304,100093,1,0
96,304,100463,5,2
96,304,100834,1,2
128,192,101204,6,2,B|128:48,2,140
192,288,102316,1,8
256,192,102686,2,2,B|256:48,2,140
320,288,103798,1,8
384,192,104168,2,2,B|384:48,2,140
256,128,105280,5,8
256,240,105650,1,0
256,128,106021,1,8
368,128,106391,1,0
368,240,106762,1,8
256,192,107132,12,8,108614
256,144,109355,5,0
256,240,109726,1,0
256,192,110096,12,8,111578
256,192,112319,5,0
368,192,112689,1,0
480,208,113060,6,2,B|480:368,1,140
480,176,113801,2,2,B|480:16,1,140
400,192,114542,2,8,B|240:192,1,140
144,192,115283,1,0
144,192,115653,1,4
32,208,116024,6,2,B|32:368,1,140
32,176,116765,2,2,B|32:16,1,140
112,192,117506,2,8,B|272:192,1,140
368,192,118247,1,0
368,192,118617,1,4
256,192,118988,12,4,120470
