osu file format v7

[General]
AudioFilename: The Great Don Paolo.mp3
AudioLeadIn: 0
PreviewTime: 3378
Countdown: 1
SampleSet: Normal
StackLeniency: 0.7
Mode: 0
LetterboxInBreaks: 0

[Editor]
DistanceSpacing: 0.800000011920929
BeatDivisor: 3
GridSize: 8

[Metadata]
Title:The Great Don Paolo
Artist:Tomohito Nishiura
Creator:RandomJibberish
Version:Insane
Source:Professor Layton and the Curious Village
Tags:NoHItter

[Difficulty]
HPDrainRate:7
CircleSize:4
OverallDifficulty:7
SliderMultiplier:2
SliderTickRate:1

[Events]
//Background and Video events
0,0,"poalobg.png"
//Break Periods
2,59169,64738
//Storyboard Layer 0 (Background)
//Storyboard Layer 1 (Fail)
//Storyboard Layer 2 (Pass)
//Storyboard Layer 3 (Foreground)
//Storyboard Sound Samples
//Background Colour Transformations
3,100,78,44,77

[TimingPoints]
3397,370.484717505403,4,1,0,30,1,0
120036,-100,4,1,0,0,0,0

[Colours]
Combo1 : 136,114,89
Combo2 : 120,61,135
Combo3 : 68,62,183
Combo4 : 174,23,23

[HitObjects]
80,56,3396,1,0
136,56,3520,1,0
192,56,3643,1,0
248,56,3767,1,8
168,192,4137,5,0
224,192,4261,1,0
280,192,4384,1,0
336,192,4508,1,8
264,336,4878,5,0
320,336,5002,1,0
376,336,5125,1,8
432,336,5249,1,0
400,176,5619,1,0
256,112,5990,1,8
352,240,6360,5,0
314,277,6484,1,0
261,277,6607,1,0
224,304,6731,1,8
344,192,7101,5,0
288,192,7225,1,0
232,192,7348,1,0
176,192,7472,1,8
248,48,7842,5,0
192,48,7966,1,0
136,48,8089,1,8
80,48,8213,1,0
112,208,8583,1,0
208,336,8954,1,8
152,168,9324,6,0,B|256:112|368:152,2,200,0|8|2
280,264,10436,2,0,B|152:224|48:304,1,200,0|8
224,192,11177,1,0
272,184,11300,1,0
320,176,11424,1,0
368,168,11547,2,0,B|352:80|512:160|424:304|384:184,1,200,0|8
256,96,12288,6,0,B|360:104|376:248,1,200,0|8
256,96,13029,2,0,B|152:104|136:248,1,200,0|8
256,344,13770,1,0
256,288,13894,1,0
256,232,14017,1,8
256,176,14141,2,0,B|392:176|376:328,2,200,0|0|4
120,88,15252,6,0,B|200:88,1,66.6666666666667
152,128,15499,2,0,B|232:128,1,66.6666666666667,0|8
256,224,15869,2,0,B|352:224,1,66.6666666666667,0|2
440,336,16363,6,0,B|360:336,3,66.6666666666667
224,288,16981,6,0,B|312:288,1,66.6666666666667
296,184,17351,2,0,B|208:184,1,66.6666666666667,0|8
224,80,17722,2,0,B|304:80,1,66.6666666666667,0|2
176,192,18216,5,0
200,240,18339,1,0
240,272,18463,1,0
288,280,18586,1,8
256,192,18957,1,0
200,344,19327,5,0
256,344,19451,1,0
312,344,19574,1,0
321,291,19698,1,0
315,238,19821,1,0
300,187,19945,1,0
280,136,20068,1,8
232,32,20315,6,0,B|312:32,1,66.6666666666667
280,136,20686,2,0,B|200:136,1,66.6666666666667,0|4
112,32,21180,6,0,B|192:32,2,66.6666666666667
144,72,21550,2,0,B|56:72,2,66.6666666666667
112,112,21921,2,0,B|200:112,2,66.6666666666667
144,152,22291,2,8,B|64:152,2,66.6666666666667
200,152,22662,6,0,B|288:152,2,66.6666666666667
168,192,23032,2,0,B|80:192,2,66.6666666666667
200,232,23403,2,0,B|288:232,2,66.6666666666667
232,272,23773,2,8,B|232:352,2,66.6666666666667
232,216,24144,6,0,B|232:136,2,66.6666666666667
272,184,24514,2,0,B|352:184,2,66.6666666666667
304,224,24885,2,0,B|304:296,2,66.6666666666667
264,256,25255,2,8,B|184:256,2,66.6666666666667
232,296,25626,6,0,B|304:296,2,66.6666666666667
176,296,25996,2,0,B|176:216,2,66.6666666666667
128,264,26367,2,0,B|48:264,2,66.6666666666667
96,224,26737,2,8,B|96:152,2,66.6666666666667
144,192,27108,6,0,B|224:192,3,66.6666666666667,0|0|0|2
368,192,27848,2,0,B|280:192,3,66.6666666666667,0|0|0|2
256,288,28589,2,0,B|256:128,2,133.333333333333,0|0|8
304,192,29330,1,0
208,192,29577,1,0
256,96,29824,1,4
152,96,30071,5,0
176,144,30195,1,0
224,120,30318,1,0
264,152,30442,1,8
104,184,30812,5,0
128,232,30936,1,0
176,208,31059,1,0
216,240,31183,1,8
72,320,31553,5,0
120,336,31677,1,0
176,344,31800,1,0
232,344,31924,1,8
280,320,32047,1,0
312,280,32171,1,0
328,232,32294,1,2
328,176,32418,1,0
304,128,32541,1,0
264,88,32665,1,4
424,72,33035,6,0,B|496:72,2,66.6666666666667
384,112,33406,2,0,B|464:112,2,66.6666666666667
368,56,33776,2,0,B|440:56,2,66.6666666666667
328,96,34147,2,0,B|328:192,2,66.6666666666667
312,40,34517,6,0,B|408:40,2,66.6666666666667
272,80,34888,2,0,B|192:80,2,66.6666666666667
288,128,35258,2,0,B|392:128,2,66.6666666666667
232,120,35629,2,0,B|144:120,2,66.6666666666667
256,168,35999,6,0,B|176:168,2,66.6666666666667
312,176,36370,2,0,B|400:176,2,66.6666666666667
280,216,36740,2,0,B|352:216,2,66.6666666666667
224,208,37111,2,0,B|136:208,2,66.6666666666667
248,256,37481,6,0,B|352:256,2,66.6666666666667
192,256,37852,2,0,B|192:168,2,66.6666666666667
144,232,38222,2,0,B|144:152,2,66.6666666666667
96,200,38593,2,0,B|96:120,2,66.6666666666667
136,160,38963,6,0,B|136:80,2,66.6666666666667
176,128,39334,2,0,B|176:208,2,66.6666666666667
216,96,39704,2,0,B|216:16,2,66.6666666666667
256,64,40074,2,0,B|256:152,2,66.6666666666667
304,88,40445,6,0,B|304:8,2,66.6666666666667
352,112,40815,2,0,B|352:192,2,66.6666666666667
400,136,41186,2,0,B|400:56,2,66.6666666666667
448,160,41556,6,0,B|376:296|288:184,1,200
168,88,42297,1,0
88,160,42544,1,0
88,216,42668,1,8
232,272,43038,6,0,B|320:272,3,66.6666666666667
160,192,43779,1,0
320,192,44150,1,8
240,48,44520,1,2
392,64,44891,6,0,B|488:64,2,66.6666666666667
360,104,45261,2,0,B|408:152,2,66.6666666666667
328,64,45632,2,0,B|384:8,2,66.6666666666667
288,96,46002,2,0,B|240:48,2,66.6666666666667
328,128,46373,6,0,B|384:184,2,66.6666666666667
288,160,46743,2,0,B|208:152,2,66.6666666666667
320,200,47114,2,0,B|352:272,2,66.6666666666667
272,224,47484,1,0
152,328,47855,6,0,B|279:290,2,133.333333333333
80,248,48596,2,0,B|168:136,1,133.333333333333,8|0
288,168,49090,1,0
304,64,49337,1,2
392,120,49584,6,0,B|392:200,1,66.6666666666667
392,240,49831,2,0,B|304:240,1,66.6666666666667
272,240,50078,2,0,B|272:144,1,66.6666666666667
272,120,50325,2,0,B|368:120,1,66.6666666666667
336,224,50819,5,0
272,304,51066,1,8
168,296,51313,1,0
104,208,51560,1,2
144,104,51807,1,0
248,96,52053,1,8
264,200,52300,1,2
352,144,52547,1,8
360,248,52794,1,2
264,296,53041,2,0,B|168:272|128:144,1,200
256,56,53782,6,0,B|288:64|288:64|256:72|256:72|288:80|288:80|256:88|256:88|288:96|288:96|256:104|256:104|288:112|288:112|256:120|256:120|288:128|288:128|256:136|256:136|288:144|288:144|256:152|256:152|288:160,1,400
288,200,54647,1,0
232,200,54770,1,2
260,245,54894,1,8
419,245,55264,1,2
260,245,55635,1,0
100,245,56005,1,2
260,245,56376,1,8
256,192,56746,12,0,58969
256,312,65638,6,0,B|336:312,2,66.6666666666667,8|0|0
256,256,66008,2,0,B|176:256,2,66.6666666666667,2|0|0
256,200,66379,6,0,B|416:200,1,133.333333333333,4|0
392,96,66873,1,0
288,88,67120,2,0,B|136:88,1,133.333333333333,8|0
152,192,67614,1,0
152,296,67861,2,2,B|296:296|296:152|296:152|304:296|448:296,1,400,2|4
432,192,68849,1,0
328,192,69096,1,0
328,88,69343,1,0
224,88,69590,1,0
224,192,69837,1,0
128,152,70084,6,0,B|96:296|216:352|344:312|376:216|296:112,1,466.666666666667
271,160,71072,5,8
368,192,71319,1,0
392,88,71566,2,0,B|252:88,1,133.333333333333
151,87,72060,1,0
151,193,72307,1,8
151,299,72554,5,2
257,299,72801,1,0
257,192,73048,1,8
363,192,73295,1,2
363,85,73542,1,0
309,85,73665,1,8
255,85,73789,1,0
148,85,74036,5,0
148,191,74283,1,0
160,296,74530,2,0,B|384:296,2,200,0|2|0
173,136,75641,1,0
229,136,75765,1,0
285,136,75888,1,0
341,136,76012,1,4
232,304,77493,6,0,B|312:304,2,66.6666666666667
232,248,77864,1,0
232,144,78111,1,0
232,88,78234,1,8
104,192,78975,6,0,B|104:272,2,66.6666666666667
160,192,79346,1,0
264,192,79593,1,0
320,192,79716,1,8
192,88,80457,6,0,B|136:136,2,66.6666666666667
232,120,80828,1,0
312,184,81075,1,0
352,216,81198,1,8
320,296,81939,6,0,B|376:248,2,66.6666666666667
280,264,82310,1,0
200,200,82557,1,0
160,168,82680,2,8,B|208:104,2,66.6666666666667
120,136,83051,2,8,B|168:72,2,66.6666666666667
88,176,83421,5,0
128,208,83545,1,0
168,240,83668,1,0
208,272,83792,2,0,B|312:304|272:168|168:120,2,200,0|8|2
128,128,84903,5,0
168,160,85027,1,0
208,192,85150,1,0
248,224,85274,2,0,B|352:256|312:120|208:72,2,200,0|8|2
168,80,86385,5,0
208,112,86509,1,0
248,144,86632,1,0
288,176,86756,2,0,B|392:208|352:72|248:24,2,200,0|8|2
376,40,87867,5,0
376,96,87991,1,0
376,152,88114,1,8
376,208,88238,1,0
376,264,88361,1,0
320,264,88484,1,8
264,264,88608,6,0,B|264:192,2,66.6666666666667
216,232,88978,2,0,B|216:312,2,66.6666666666667
176,264,89349,6,0,B|176:344,2,66.6666666666667,8|8|0
128,240,89719,2,0,B|104:320,2,66.6666666666667
96,192,90090,2,0,B|48:264,2,66.6666666666667
80,144,90460,2,0,B|40:72,2,66.6666666666667
104,96,90831,6,0,B|88:16,2,66.6666666666667,8|0|8
160,96,91201,2,0,B|160:16,2,66.6666666666667
216,96,91572,2,0,B|216:176,2,66.6666666666667
272,96,91942,2,0,B|200:184,2,66.6666666666667
312,136,92313,6,0,B|200:152,2,66.6666666666667,8|8|8
328,184,92683,2,0,B|240:144,2,66.6666666666667
384,184,93054,2,8,B|328:112,2,66.6666666666667
440,184,93424,2,0,B|416:120,2,66.6666666666667
488,160,93795,6,8,B|488:72,2,66.6666666666667
456,200,94165,2,8,B|456:280,2,66.6666666666667
408,224,94536,2,8,B|408:304,2,66.6666666666667
352,232,94906,1,4
256,360,95277,6,0,B|336:360,2,66.6666666666667
248,304,95647,2,2,B|376:264|376:200|376:176,1,133.333333333333,2|10
320,200,96018,2,0,B|232:200,2,66.6666666666667
328,144,96388,2,2,B|200:104|200:40|200:16,1,133.333333333333,2|8
240,40,96759,6,0,B|328:40,2,66.6666666666667
240,96,97129,2,8,B|320:96,2,66.6666666666667
240,152,97500,2,0,B|320:152,2,66.6666666666667
240,208,97870,2,2,B|136:264|280:320,1,133.333333333333
256,360,98241,6,0,B|176:360,2,66.6666666666667
264,304,98611,2,2,B|136:264|136:200|136:176,1,133.333333333333,2|8
192,200,98982,2,0,B|280:200,2,66.6666666666667
184,144,99352,2,2,B|312:104|312:40|312:16,1,133.333333333333,2|10
272,40,99723,6,0,B|184:40,2,66.6666666666667
272,96,100093,2,8,B|192:96,2,66.6666666666667
272,152,100463,2,0,B|192:152,2,66.6666666666667
272,208,100834,2,2,B|376:264|232:320,1,133.333333333333
256,352,101204,6,0,B|200:304,2,66.6666666666667,8|0|8
256,296,101575,2,0,B|352:296|352:168,1,133.333333333333,2|0
352,160,101945,1,4
192,120,102316,1,0
152,88,102439,1,0
192,48,102563,1,8
256,32,102686,6,0,B|312:80,2,66.6666666666667
256,88,103057,2,0,B|160:88|160:216,1,133.333333333333,2|8
160,216,103427,2,0,B|192:312|304:304,1,133.333333333333,2|8
256,248,103798,2,0,B|312:248|336:312|280:360|272:360,1,133.333333333333,8|4
256,352,104168,6,0,B|200:304,2,66.6666666666667
256,296,104539,2,0,B|160:296|160:168,1,133.333333333333,0|8
160,160,104909,1,2
320,120,105280,1,0
344,72,105403,1,0
304,32,105527,1,8
256,32,105650,6,0,B|200:80,2,66.6666666666667,8|0|8
256,88,106021,2,0,B|352:88|352:216,1,133.333333333333,2|8
352,216,106391,2,0,B|320:312|208:304,1,133.333333333333,2|8
256,248,106762,2,0,B|200:248|176:312|232:360|240:360,1,133.333333333333,8|4
272,344,107132,6,0,B|360:344,2,66.6666666666667
304,296,107503,2,0,B|392:296,2,66.6666666666667
272,248,107873,2,8,B|184:248,2,66.6666666666667
240,200,108244,2,8,B|168:200,2,66.6666666666667
208,152,108614,6,0,B|152:96,2,66.6666666666667
216,96,108985,2,0,B|216:24,2,66.6666666666667
264,64,109355,2,2,B|312:16,2,66.6666666666667
320,72,109726,2,2,B|408:72,2,66.6666666666667
352,112,110096,6,0,B|352:192,2,66.6666666666667
312,144,110467,2,0,B|240:112,2,66.6666666666667
272,176,110837,2,8,B|192:176,2,66.6666666666667
320,192,111208,2,8,B|392:192,2,66.6666666666667
280,224,111578,6,2,B|232:328|128:312|56:224|88:112|208:88|288:168,1,400,2|10
344,256,112689,2,8,B|344:352,2,66.6666666666667
344,200,113060,6,2,B|344:96|240:96|224:136|208:200,1,200
208,216,113554,1,0
224,264,113677,1,0
264,296,113801,2,2,B|352:312|416:256|392:160,1,200
392,136,114295,1,0
360,88,114418,1,0
312,56,114542,6,8,B|192:40|104:112,1,200,8|0
136,256,115283,1,0
176,288,115406,1,0
224,296,115530,1,0
272,280,115653,2,2,B|352:272|384:184|312:112,1,200,2|8
224,104,116271,5,8
176,120,116394,1,0
208,224,116641,1,0
256,232,116765,2,0,B|320:200|224:128|440:224|360:136|400:96,1,200
232,80,117506,6,2,B|272:16|400:16|408:128|360:200|288:200|288:200|288:304,1,400,2|8
288,344,118617,1,4
256,192,118988,12,4,120470
