osu file format v7

[General]
AudioFilename: The Great Don Paolo.mp3
AudioLeadIn: 0
PreviewTime: 3378
Countdown: 1
SampleSet: Normal
StackLeniency: 0.7
Mode: 0
LetterboxInBreaks: 0

[Editor]
DistanceSpacing: 0.800000011920929
BeatDivisor: 3
GridSize: 8

[Metadata]
Title:The Great Don Paolo
Artist:Tomohito Nishiura
Creator:RandomJibberish
Version:Hard
Source:Professor Layton and the Curious Village
Tags:NoHItter

[Difficulty]
HPDrainRate:5
CircleSize:4
OverallDifficulty:5
SliderMultiplier:1.6
SliderTickRate:1

[Events]
//Background and Video events
0,0,"poalobg.png"
//Break Periods
2,59176,64446
//Storyboard Layer 0 (Background)
//Storyboard Layer 1 (Fail)
//Storyboard Layer 2 (Pass)
//Storyboard Layer 3 (Foreground)
//Storyboard Sound Samples
//Background Colour Transformations
3,100,78,44,77

[TimingPoints]
3405,370.484717505403,4,1,0,37,1,0
21173,-100,4,1,0,20,0,0
27101,-100,4,1,0,34,0,0
44884,-100,4,1,0,20,0,0
47477,-100,4,1,0,35,0,0
120044,-100,4,2,0,0,0,0

[Colours]
Combo1 : 136,114,89
Combo2 : 120,61,135
Combo3 : 68,62,183
Combo4 : 174,23,23

[HitObjects]
80,64,3405,1,0
168,64,3651,1,0
168,64,3775,1,8
72,144,4145,1,0
160,144,4392,1,0
160,144,4516,1,8
64,232,4886,1,0
152,232,5133,1,0
152,232,5257,1,8
192,336,5627,6,2,B|336:256|176:128|384:80,1,320,2|0
248,56,6615,1,0
248,56,6739,1,8
128,104,7109,1,0
200,152,7356,1,0
200,152,7480,1,8
104,232,7850,1,0
192,224,8097,1,0
192,224,8221,2,2,B|272:352|320:80|384:256|416:352|480:192,1,320,2|0
472,96,9332,6,0,B|344:48|280:112,1,160
408,176,10073,2,2,B|296:224|216:160,1,160
216,56,10814,2,0,B|120:8|24:72,1,160
96,176,11555,2,2,B|128:64|160:288|208:128,1,160
160,280,12296,6,0,B|272:328|336:264,1,160
440,248,13037,2,2,B|344:184|248:216,1,160
408,160,13778,2,0,B|280:96|216:144,1,160
128,192,14519,2,2,B|176:288|192:112|256:240,1,160
136,280,15260,6,8,B|136:344,3,53.3333333333333
256,288,16001,1,2
384,280,16371,1,0
480,192,16742,2,8,B|416:128|400:240|320:176,1,160
208,192,17483,1,2
80,192,17853,1,4
256,96,18224,6,8,B|256:160,3,53.3333333333333
256,272,18965,1,2
128,272,19335,1,0
32,192,19706,2,8,B|96:128|112:240|192:176,1,160
304,192,20447,1,2
432,192,20817,1,4
400,64,21188,6,2,B|344:8,2,53.3333333333333
368,96,21558,2,0,B|320:48,2,53.3333333333333
336,128,21929,2,2,B|288:80,2,53.3333333333333
304,160,22299,2,0,B|240:96,2,53.3333333333333
272,192,22670,6,8,B|208:256,2,53.3333333333333
246,160,23040,2,0,B|176:232,2,53.3333333333333
216,128,23411,2,8,B|264:80,2,53.3333333333333
184,96,23781,2,0,B|232:48,2,53.3333333333333
112,64,24152,6,2,B|64:112,2,53.3333333333333
144,96,24522,2,0,B|96:144,2,53.3333333333333
176,128,24893,2,2,B|120:184,2,53.3333333333333
208,160,25263,2,0,B|160:208,2,53.3333333333333
240,192,25634,6,8,B|280:232,2,53.3333333333333
266,160,26004,2,0,B|320:216,2,53.3333333333333
296,128,26375,2,8,B|240:72,2,53.3333333333333
320,96,26745,2,0,B|272:48,2,53.3333333333333
368,96,27116,6,0,B|416:160|416:240|368:288,1,160
272,280,27856,2,2,B|288:336|352:352|408:336,1,160
336,224,28597,2,0,B|256:224|144:160,1,160
230,61,29338,2,8,B|294:61,3,53.3333333333333
144,288,30079,6,0,B|96:224|96:144|144:96,1,160
48,248,30820,2,2,B|24:192|32:144|64:80,1,160
184,80,31561,2,0,B|280:112|264:240,1,160
296,320,32302,2,8,B|216:320,3,53.3333333333333
368,328,33043,6,8,B|368:208,2,106.666666666667
296,280,33784,2,2,B|296:168,2,106.666666666667
216,320,34525,2,8,B|88:320,2,106.666666666667
176,248,35266,2,2,B|48:248,2,106.666666666667
247,207,36007,5,8
307,267,36254,1,8
368,207,36501,1,8
428,146,36748,1,2
368,86,36995,1,2
307,146,37242,1,2
247,207,37489,1,8
187,146,37736,1,8
126,86,37983,1,8
66,146,38230,1,2
127,206,38477,1,2
187,146,38724,1,2
128,88,38971,6,2,B|64:88,2,53.3333333333333
128,131,39342,2,2,B|71:130,2,53.3333333333333
128,174,39712,2,2,B|64:174,2,53.3333333333333
128,217,40082,2,2,B|64:217,2,53.3333333333333
128,260,40453,6,0,B|192:260,2,53.3333333333333
128,217,40823,2,0,B|192:217,2,53.3333333333333
128,174,41194,2,0,B|192:174,2,53.3333333333333
128,131,41564,2,0,B|192:131,2,53.3333333333333
144,88,41935,5,4
272,80,42552,1,0
272,80,42676,1,0
400,80,43046,2,2,B|320:208|256:208,1,160
160,192,43787,2,2,B|256:304|320:288,1,160
416,288,44528,1,8
416,160,44899,6,2,B|416:224,2,53.3333333333333
368,144,45269,2,2,B|368:224,2,53.3333333333333
320,160,45640,2,2,B|320:240,2,53.3333333333333
272,144,46010,2,2,B|272:208,2,53.3333333333333
224,160,46381,6,2,B|224:80,2,53.3333333333333
176,176,46751,2,2,B|176:96,2,53.3333333333333
128,192,47122,2,2,B|128:128,2,53.3333333333333
80,208,47492,1,4
80,336,47863,6,2,B|240:256|416:352,2,320,2|2|8
96,208,49715,1,0
224,208,50086,1,8
224,80,50456,1,4
352,80,50827,2,2,B|396:280|208:352,1,320
224,208,52308,2,2,B|344:336|544:264,1,320
432,48,53790,6,2,B|272:128|96:32,2,320,2|2|8
416,176,55643,1,0
288,176,56013,1,8
288,304,56384,1,4
160,304,56754,2,2,B|112:128|304:32,3,320,2|8|2|6
112,304,65646,6,8,B|176:304,2,53.3333333333333
112,256,66016,2,8,B|176:256,2,53.3333333333333
112,208,66387,2,2,B|112:128|224:48|352:112|400:176,1,320
448,48,67498,6,0,B|384:48,2,53.3333333333333
448,96,67869,2,0,B|384:96,2,53.3333333333333
448,144,68239,2,8,B|384:144,2,53.3333333333333
448,192,68610,2,2,B|352:192|304:288|224:336|160:288|112:208|144:176|192:112|256:128|272:160,1,480
192,40,70092,1,0
416,80,70833,6,8,B|352:80,2,53.3333333333333
400,112,71203,2,8,B|320:112,2,53.3333333333333
368,144,71574,2,0,B|304:320|96:272,2,320
256,80,73426,6,8,B|176:80,2,53.3333333333333
256,128,73797,2,8,B|320:128,2,53.3333333333333
256,176,74167,2,8,B|192:176,2,53.3333333333333
256,224,74538,2,0,B|448:224,2,160
256,352,75649,2,0,B|256:272,3,53.3333333333333,0|0|0|4
80,192,77501,6,8,B|80:256,3,53.3333333333333
80,120,78242,2,0,B|160:56|240:136,1,160
120,192,78983,2,8,B|120:256,3,53.3333333333333
120,120,79724,2,0,B|200:56|280:136,1,160
152,192,80465,6,8,B|152:256,3,53.3333333333333
152,120,81206,2,0,B|232:56|312:136,1,160
192,192,81947,2,8,B|192:256,3,53.3333333333333
192,120,82688,2,0,B|272:56|352:136,1,160
376,56,83429,6,0,B|376:232,1,160
320,88,84170,2,2,B|320:272,1,160
264,128,84911,2,0,B|264:296,1,160
208,168,85652,2,2,B|208:360,1,160
160,208,86393,6,0,B|344:208,1,160
208,144,87134,2,2,B|408:144,1,160
256,80,87875,2,0,B|424:80,1,160
296,24,88616,6,0,B|360:24,2,53.3333333333333
320,56,88986,2,8,B|248:56,2,53.3333333333333
296,88,89357,2,0,B|376:88,2,53.3333333333333
264,120,89727,2,8,B|320:120,2,53.3333333333333
296,152,90098,6,0,B|296:224,2,53.3333333333333
248,152,90468,2,8,B|248:232,2,53.3333333333333
208,152,90839,2,0,B|208:224,2,53.3333333333333
168,152,91209,2,8,B|168:232,2,53.3333333333333
128,152,91580,2,0,B|128:224,2,53.3333333333333
88,152,91950,2,2,B|104:56|16:16,2,160
176,240,93062,2,2,B|104:296|0:296,2,160
256,144,94173,1,0
368,72,94544,1,0
376,200,94914,1,8
248,320,95285,6,8,B|304:320,2,53.3333333333333
200,320,95655,1,0
272,208,96026,2,8,B|176:208,2,53.3333333333333
312,208,96396,1,0
248,96,96767,6,8,B|304:96,2,53.3333333333333
200,96,97137,1,0
272,208,97508,2,8,B|176:208,2,53.3333333333333
312,208,97878,1,0
392,112,98249,6,2,B|400:232|344:304|328:304,1,160
328,144,98990,2,0,B|336:264|280:336|264:336,1,160
272,176,99731,2,2,B|200:248|96:192|136:72|216:64|280:136,1,320
424,192,101212,6,2,B|408:152|408:152|392:192|392:192|376:152|376:152|360:192|360:192|344:152|344:152|328:192|328:192|312:152|312:152|296:192,1,320
192,112,102324,1,0
88,192,102694,6,2,B|104:232|104:232|120:192|120:192|136:232|136:232|152:192|152:192|168:232|168:232|184:192|184:192|200:232|200:232|216:192,1,320
136,320,103806,1,0
256,344,104176,6,2,B|296:328|296:328|256:312|256:312|296:296|296:296|256:280|256:280|296:264|296:264|256:248|256:248|296:232|296:232|256:216,1,320
336,128,105288,1,0
256,24,105658,6,2,B|216:40|216:40|256:56|256:56|216:72|216:72|256:88|256:88|216:104|216:104|256:120|256:120|216:136|216:136|256:152,1,320
256,272,106770,1,0
128,272,107140,6,8,B|192:272,2,53.3333333333333
128,224,107511,2,8,B|128:160,2,53.3333333333333
88,224,107881,2,8,B|24:224,2,53.3333333333333
88,184,108252,2,8,B|88:112,2,53.3333333333333
128,184,108622,6,2,B|192:184,2,53.3333333333333
128,144,108993,2,2,B|128:56,2,53.3333333333333
168,144,109363,2,2,B|240:144,2,53.3333333333333
168,184,109734,2,2,B|168:272,2,53.3333333333333
208,184,110104,6,0,B|328:184,1,106.666666666667
312,224,110475,2,0,B|312:336,1,106.666666666667
272,328,110845,2,0,B|144:328,1,106.666666666667
168,288,111216,2,0,B|168:168,1,106.666666666667
208,176,111586,6,8,B|336:176,1,106.666666666667
312,136,111957,2,8,B|312:16,1,106.666666666667
264,24,112327,2,8,B|152:24,1,106.666666666667
168,64,112697,2,8,B|256:168,1,106.666666666667
256,184,113068,5,0
344,192,113315,1,0
384,208,113438,1,2
304,304,113809,1,0
216,288,114056,1,0
184,264,114179,1,2
152,136,114550,5,0
216,80,114797,1,0
256,88,114920,1,2
344,176,115291,1,0
280,232,115538,1,0
240,232,115661,1,4
304,120,116032,5,0
224,144,116279,1,0
184,136,116402,1,0
184,264,116773,1,8
184,136,117143,6,2,B|136:88|160:24|224:-8|296:8|344:48|352:96|336:152|304:176|256:184|256:184|256:280,1,480,2|8
256,352,118625,1,4
256,192,118996,12,4,120478
