osu file format v7

[General]
AudioFilename: 13_Deserted_Amusement_Park.mp3
AudioLeadIn: 3000
PreviewTime: 49137
Countdown: 1
SampleSet: Normal
StackLeniency: 0.7
Mode: 0
LetterboxInBreaks: 1

[Editor]
DistanceSpacing: 0.800000011920929
BeatDivisor: 8
GridSize: 8

[Metadata]
Title:Deserted Amusement Park
Artist:Tomohito Nishiura
Creator:NoHItter
Version:Questionable
Source:Professor Layton and the Curious Village
Tags:Professor Layton Luke Picarats Hat DS game NDS

[Difficulty]
HPDrainRate:3
CircleSize:4
OverallDifficulty:3
SliderMultiplier:0.5
SliderTickRate:1

[Events]
//Background and Video events
0,0,"ferris.png"
//Break Periods
//Storyboard Layer 0 (Background)
//Storyboard Layer 1 (Fail)
//Storyboard Layer 2 (Pass)
//Storyboard Layer 3 (Foreground)
//Storyboard Sound Samples
//Background Colour Transformations
3,100,190,49,14

[TimingPoints]
257,526.315789473684,4,1,0,29,1,0
25520,-50,4,1,0,51,0,0
28941,-50,4,1,0,0,0,0
29006,-50,4,1,0,51,0,0
29467,-50,4,1,0,0,0,0
29532,-50,4,1,0,51,0,0
30520,-50,4,1,0,0,0,0
30585,-50,4,1,0,51,0,0
31045,-50,4,1,0,0,0,0
31110,-50,4,1,0,51,0,0
35224,-50,4,1,0,0,0,0
35322,-50,4,1,0,51,0,0
35783,-50,4,1,0,0,0,0
35848,-50,4,1,0,51,0,0
36835,-50,4,1,0,0,0,0
36900,-50,4,1,0,51,0,0
37360,-50,4,1,0,0,0,0
37425,-50,4,1,0,51,0,0
41572,-50,4,1,0,0,0,0
41637,-50,4,1,0,51,0,0
42097,-50,4,1,0,0,0,0
42162,-50,4,1,0,51,0,0
43148,-50,4,1,0,0,0,0
43213,-50,4,1,0,51,0,0
43673,-50,4,1,0,0,0,0
43738,-50,4,1,0,51,0,0
44724,-50,4,1,0,0,0,0
44789,-50,4,1,0,51,0,0
45249,-50,4,1,0,0,0,0
45314,-50,4,1,0,51,0,0
51309,-50,4,1,0,51,0,1
51572,-50,4,1,0,0,0,1
51637,-50,4,1,0,51,0,1
52097,-50,4,1,0,0,0,1
52162,-50,4,1,0,51,0,1
53148,-50,4,1,0,0,0,1
53213,-50,4,1,0,51,0,1
53673,-50,4,1,0,0,0,1
53738,-50,4,1,0,51,0,1
54724,-50,4,1,0,0,0,1
54789,-50,4,1,0,51,0,1
55249,-50,4,1,0,0,0,1
55314,-50,4,1,0,51,0,1
56300,-50,4,1,0,0,0,1
56365,-50,4,1,0,51,0,1
56825,-50,4,1,0,0,0,1
56890,-50,4,1,0,51,0,0
63941,-50,4,1,0,51,0,1
69993,-50,4,1,0,0,0,1
70058,-50,4,1,0,51,0,1
70518,-50,4,1,0,0,0,1
70583,-50,4,1,0,51,0,1
71043,-50,4,1,0,0,0,1
71108,-50,4,1,0,51,0,1
72821,-100,4,1,0,51,0,0
75804,-100,4,1,0,21,0,0

[Colours]
Combo1 : 65,158,24
Combo2 : 163,20,23
Combo3 : 158,100,35

[HitObjects]
128,104,257,1,0
128,104,783,1,0
128,104,1309,1,8
128,184,1835,2,0,B|240:184,1,100,0|8
224,264,3414,2,0,B|112:264,1,100,0|8
128,344,4993,2,0,B|240:344,1,100,0|8
304,344,6572,5,0
304,344,7099,1,0
304,344,7625,1,8
392,344,8151,1,0
472,344,8678,1,0
472,264,9204,1,8
472,184,9730,2,0,B|368:184,1,100,0|8
368,104,11309,2,0,B|472:104,1,100,0|8
488,24,12888,6,0,B|384:24,1,100,0|8
389,25,14467,1,0
336,80,14993,2,0,B|296:120,1,50,0|8
224,80,16046,1,0
144,80,16572,2,0,B|104:120,1,50,0|8
32,80,17625,1,0
32,160,18151,2,0,B|72:200,1,50,0|8
120,248,19204,5,0
200,248,19730,1,0
280,248,20256,1,8
360,248,20783,5,0
360,328,21309,1,0
280,328,21835,1,8
200,328,22362,5,0
120,328,22888,1,0
120,248,23414,1,8
123,171,23941,2,0,B|191:120|259:196,1,150
256,192,26046,5,0
328,224,26572,1,8
320,144,27099,1,4
392,176,27625,1,0
384,96,28151,1,8
304,96,28678,6,0,B|200:96,2,100,0|8|0
256,160,30256,6,0,B|152:160,2,100,0|8|0
232,80,31835,5,4
160,48,32361,1,0
168,128,32888,1,8
96,96,33414,1,4
104,176,33940,1,0
168,208,34434,1,8
240,168,34993,6,0,B|296:256,2,100,0|8|0
312,136,36572,6,0,B|368:224,2,100,8|8|0
384,104,38151,5,0
312,72,38678,1,0
320,152,39204,1,8
320,232,39730,5,0
248,272,40256,1,0
256,192,40783,1,8
200,136,41309,6,0,B|128:64,2,100,0|8|8
200,248,42888,2,0,B|128:320,2,100,0|8|8
256,184,44467,6,0,B|360:184,2,100,0|8|0
280,104,46046,1,0
320,32,46572,1,0
360,104,47099,1,8
360,184,47625,5,0
320,256,48151,1,0
280,184,48678,1,8
256,208,49204,12,4,50783
256,192,51309,6,0,B|256:296,2,100
328,160,52888,2,8,B|328:264,2,100
400,128,54467,6,0,B|400:232,2,100
472,88,56046,2,8,B|472:192,2,100
408,40,57625,6,0,B|336:40|280:72|288:168,1,200,0|8
208,176,59204,2,0,B|208:248|176:304|80:296,1,200,0|8
80,216,60783,5,0
80,136,61309,1,0
80,56,61835,5,0
160,56,62362,1,0
240,56,62888,1,0
319,59,63414,1,4
399,60,63941,6,0,B|396:162|390:322|251:186,1,300
256,192,66046,1,0
256,112,66572,5,0
256,32,67099,1,0
176,32,67625,1,0
96,32,68151,5,8
96,112,68678,1,8
96,192,69204,1,8
96,272,69730,6,0,B|176:336,3,100
256,336,71835,1,0
336,336,72362,1,8
256,208,72888,12,8,76046
