osu file format v7

[General]
AudioFilename: 13_Deserted_Amusement_Park.mp3
AudioLeadIn: 3000
PreviewTime: 49137
Countdown: 1
SampleSet: Normal
StackLeniency: 0.7
Mode: 0
LetterboxInBreaks: 1

[Editor]
DistanceSpacing: 1.60000002384186
BeatDivisor: 6
GridSize: 8

[Metadata]
Title:Deserted Amusement Park
Artist:Tomohito Nishiura
Creator:NoHItter
Version:Mysterious
Source:Professor Layton and the Curious Village
Tags:Professor Layton Luke Picarats Hat DS game NDS

[Difficulty]
HPDrainRate:6
CircleSize:5
OverallDifficulty:6
SliderMultiplier:0.5
SliderTickRate:0.5

[Events]
//Background and Video events
0,0,"ferris.png"
//Break Periods
//Storyboard Layer 0 (Background)
//Storyboard Layer 1 (Fail)
//Storyboard Layer 2 (Pass)
//Storyboard Layer 3 (Foreground)
//Storyboard Sound Samples
//Background Colour Transformations
3,100,220,64,12

[TimingPoints]
257,526.315789473684,4,1,0,29,1,0
520,-100,4,1,0,0,0,0
651,-100,4,1,0,29,0,0
1572,-100,4,1,0,0,0,0
1835,-100,4,1,0,29,0,0
7362,-100,4,1,0,0,0,0
7493,-100,4,1,0,29,0,0
8414,-100,4,1,0,0,0,0
8546,-100,4,1,0,29,0,0
25432,-100,4,1,0,51,0,0
25520,-50,4,1,0,51,0,0
27821,-100,4,1,0,31,0,0
27908,-50,4,1,0,40,0,0
29400,-100,4,1,0,32,0,0
29487,-50,4,1,0,51,0,0
30979,-100,4,1,0,32,0,0
31066,-50,4,1,0,51,0,0
51309,-50,4,1,0,51,0,1
56681,-50,4,1,0,51,0,0
63941,-50,4,1,0,51,0,1
72821,-100,4,1,0,51,0,0
75804,-100,4,1,0,21,0,0

[Colours]
Combo1 : 65,158,24
Combo2 : 163,20,23
Combo3 : 158,100,35

[HitObjects]
256,312,257,2,0,B|288:312,2,25,0|0|8
256,232,1308,2,0,B|224:232,2,25,0|0|8
200,168,2362,5,0
152,104,2888,1,0
312,168,3941,5,0
360,104,4467,1,8
256,224,5520,5,0
256,304,6046,1,8
256,304,6441,5,0
256,304,6572,1,0
264,224,7099,2,0,B|232:224,2,25,0|0|8
240,144,8151,2,0,B|272:144,2,25,0|0|8
256,64,9204,1,8
192,56,9599,5,0
192,56,9730,1,0
144,120,10256,1,0
192,176,10783,1,8
320,56,11178,5,0
320,56,11309,1,0
368,120,11835,1,0
320,176,12362,1,8
256,192,12756,5,0
256,192,12888,1,0
200,248,13414,1,0
200,328,13941,1,8
256,192,14335,5,0
256,192,14467,1,0
312,248,14993,1,0
312,328,15520,1,8
392,336,16046,6,0,B|392:280,1,50,0|8
392,208,17099,1,2
256,336,17625,6,0,B|256:280,1,50,0|8
256,208,18678,1,0
120,336,19204,6,0,B|120:280,1,50,0|8
120,208,20256,1,2
192,176,20783,6,0,B|248:176,1,50,0|8
320,176,21835,1,0
320,96,22362,6,0,B|264:96,1,50,0|8
192,96,23414,1,2
256,208,23941,12,4,24993
256,40,25520,6,0,B|256:112|312:112,1,100
256,256,26572,2,0,B|256:312|184:312,1,100
256,168,27625,6,0,B|200:168,1,50
128,168,28151,1,0
200,312,28678,1,0
256,168,29204,6,0,B|312:168,1,50
384,168,29730,1,0
320,312,30256,1,0
256,168,30783,6,0,B|256:112,1,50
256,40,31309,1,0
256,240,31704,6,0,B|256:272,1,25
256,104,32362,1,0
216,112,32493,1,0
184,136,32625,1,0
152,160,32756,1,0
136,200,32888,1,4
256,240,33283,6,0,B|256:272,1,25
256,104,33941,1,0
296,112,34072,1,0
328,136,34204,1,0
360,160,34335,1,0
376,200,34467,1,4
376,320,34862,5,0
376,320,34993,1,0
480,200,35519,1,0
376,320,36046,1,8
136,320,36441,5,0
136,320,36572,1,0
32,200,37098,1,0
136,320,37625,1,8
256,320,38019,5,0
256,320,38151,1,0
256,160,38677,1,0
416,160,39204,1,8
256,320,39598,5,0
256,320,39730,1,0
256,160,40256,1,0
96,160,40783,1,8
176,296,41309,5,0
336,296,41835,1,0
256,160,42362,1,8
256,40,42756,5,0
256,40,42888,1,0
176,176,43414,1,0
336,176,43941,1,8
256,264,44335,5,0
256,264,44467,1,0
336,120,44993,1,0
176,120,45520,1,8
176,280,46046,6,0,B|256:352|272:352|344:280,1,200
344,120,47625,2,0,B|264:192|248:192|176:120,1,200
256,208,49204,12,4,50783
256,192,51309,5,0
216,160,51485,1,0
176,128,51660,1,0
136,96,51835,1,0
256,80,52230,1,0
256,80,52427,1,0
368,160,52888,6,0,B|280:96,1,100
368,160,53765,5,0
368,160,53941,1,0
240,256,54467,2,0,B|328:192,2,100
392,312,56046,1,0
480,184,56572,1,4
392,48,57099,5,0
280,160,57625,1,0
240,192,57800,1,0
200,224,57976,1,0
160,256,58151,1,0
56,320,58546,1,0
56,256,58743,1,0
48,112,59204,5,0
192,40,59730,1,0
296,40,60081,1,0
352,40,60256,1,0
496,104,60783,1,8
496,264,61309,1,8
336,264,61835,1,8
416,120,62362,1,8
256,208,62625,12,4,63414
256,192,63941,5,0
296,160,64117,1,0
336,128,64292,1,0
376,96,64467,1,0
256,80,64862,1,0
256,80,65059,1,0
144,160,65520,6,0,B|232:96,1,100
144,160,66397,5,0
144,160,66573,1,0
272,256,67099,2,0,B|184:192,2,100
120,312,68678,1,0
32,184,69204,1,4
80,88,69555,5,0
120,48,69731,1,0
280,48,70256,1,0
440,48,70783,1,8
368,192,71309,2,8,B|304:192|312:264,1,100
456,192,72362,1,8
256,208,72888,12,0,75871
256,192,76046,5,4
