osu file format v14

[General]
AudioFilename: kirakira.mp3
AudioLeadIn: 0
PreviewTime: 49901
Countdown: 0
SampleSet: Soft
StackLeniency: 0.7
Mode: 0
LetterboxInBreaks: 0
WidescreenStoryboard: 0

[Editor]
Bookmarks: 13460,24754,35607,36049,49990
DistanceSpacing: 1.2
BeatDivisor: 4
GridSize: 4
TimelineZoom: 1.5

[Metadata]
Title:Kira Kira
TitleUnicode:キラキラ
Artist:Tomohisa Sako
ArtistUnicode:佐香 智久
Creator:Xinely
Version:Hard
Source:ポケットモンスター XY
Tags:Pokémon Pokemon Pocket Monster Pachiru 少年T ShounenT
BeatmapID:1186085
BeatmapSetID:560933

[Difficulty]
HPDrainRate:6
CircleSize:4
OverallDifficulty:6
ApproachRate:7.5
SliderMultiplier:1.4
SliderTickRate:1

[Events]
//Background and Video events
0,0,"fokko waifu copy.jpg",0,0
//Break Periods
//Storyboard Layer 0 (Background)
//Storyboard Layer 1 (Fail)
//Storyboard Layer 2 (Pass)
//Storyboard Layer 3 (Foreground)
//Storyboard Sound Samples

[TimingPoints]
755,352.941176470588,4,2,1,30,1,0
1813,-100,4,2,1,60,0,0
2166,352.941176470588,4,2,1,60,1,0
13460,-125,4,2,2,40,0,0
34636,-125,4,2,1,50,0,0
36048,-111.111111111111,4,2,1,50,0,0
41695,-111.111111111111,4,2,2,60,0,0
49989,-100,4,2,2,70,0,1
54224,-100,4,2,2,70,0,1
54577,-100,4,2,2,70,0,1
54930,-100,4,2,2,70,0,1
55813,-100,4,2,2,70,0,1
60224,-100,4,2,1,50,0,0
61283,-100,4,2,2,70,0,1
65518,-100,4,2,2,70,0,1
65871,-100,4,2,2,70,0,1
66224,-100,4,2,2,70,0,1
67107,-100,4,2,2,70,0,1
71342,-100,4,2,1,60,0,0
75577,-100,4,2,1,70,0,1
85460,-100,4,2,1,70,0,0
86871,-100,4,2,2,70,0,0

[Colours]
Combo1 : 255,140,85
Combo2 : 85,255,85
Combo3 : 102,171,255

[HitObjects]
152,280,755,5,4,0:0:0:0:
184,116,1107,1,4,0:0:0:0:
272,256,1460,1,4,0:0:0:0:
368,116,1813,2,0,L|428:128,3,35,8|8|8|8,0:0|0:0|0:0|0:0,0:0:0:0:
444,136,2166,6,0,P|452:224|416:284,1,140,4|8,0:0|0:0,0:0:0:0:
360,316,2695,1,0,0:0:0:0:
280,292,2871,2,0,P|244:284|192:284,1,70,10|2,0:0|0:0,0:0:0:0:
136,316,3224,1,8,0:0:0:0:
32,256,3401,6,0,P|29:219|44:168,1,70,2|8,0:0|0:0,0:0:0:0:
68,96,3754,2,0,P|88:65|133:35,1,70,2|8,0:0|0:0,0:0:0:0:
208,12,4107,2,0,P|268:8|344:56,1,140,2|8,0:0|0:1,0:0:0:0:
396,124,4636,1,8,0:1:0:0:
264,264,4989,6,0,P|204:268|128:220,1,140,10|8,0:0|0:0,0:0:0:0:
80,168,5518,1,0,0:0:0:0:
152,128,5695,2,0,P|184:120|224:120,2,70,10|2|8,0:0|0:0|0:0,0:0:0:0:
264,188,6224,6,0,P|296:156|312:120,1,70,2|8,0:0|0:0,0:0:0:0:
264,264,6577,2,0,P|320:280|364:276,1,70,6|8,0:0|0:0,0:0:0:0:
440,240,6930,2,0,P|456:172|396:108,1,140,2|8,0:0|0:1,0:0:0:0:
360,56,7460,1,8,0:1:0:0:
204,120,7813,6,0,P|165:176|182:242,1,140,4|8,0:0|0:0,0:0:0:0:
228,312,8342,1,0,0:0:0:0:
164,368,8518,2,0,P|104:356|64:356,1,70,8|2,0:0|0:0,0:0:0:0:
28,304,8871,1,8,0:0:0:0:
104,212,9048,6,0,P|107:184|96:124,1,70,2|8,0:0|0:0,0:0:0:0:
20,96,9401,2,0,P|43:69|72:50,1,70,2|8,0:0|0:0,0:0:0:0:
152,28,9754,2,0,B|208:56|264:40|264:40|288:72,1,140,2|8,0:0|0:1,0:0:0:0:
288,144,10283,1,8,0:1:0:0:
444,80,10636,6,0,L|464:224,1,140,10|8,0:0|0:0,0:0:0:0:
416,288,11165,1,0,0:0:0:0:
332,284,11342,2,0,P|300:273|248:272,1,70,10|2,0:0|0:0,0:0:0:0:
184,296,11695,1,8,0:0:0:0:
176,140,11871,1,14,0:0:0:0:
196,124,12224,6,0,P|228:180|228:212,1,70,8|0,0:0|0:0,0:0:0:0:
312,180,12577,2,0,P|322:146|344:119,1,70,4|0,3:0|0:0,0:0:0:0:
444,68,12930,1,4,0:3:0:0:
444,196,13107,1,8,0:2:0:0:
440,216,13460,6,0,L|420:352,1,112,4|2,0:0|0:0,0:0:0:0:
352,356,13989,1,0,0:0:0:0:
296,300,14165,2,0,P|236:296|176:308,1,112,2|2,0:0|0:0,0:0:0:0:
112,332,14695,1,0,0:0:0:0:
48,288,14871,2,0,L|40:160,2,112,2|2|2,0:0|0:0|0:0,0:0:0:0:
184,208,15930,1,2,0:0:0:0:
328,152,16283,6,0,L|332:264,1,112,2|2,0:0|0:0,0:0:0:0:
184,208,16989,1,2,0:0:0:0:
228,144,17165,2,0,L|233:88,1,56,0|2,0:0|0:0,0:0:0:0:
196,20,17518,2,0,P|140:24|80:44,1,112
12,68,18048,1,2,0:0:0:0:
0,152,18224,2,0,P|26:229|44:260,1,112
128,236,18754,2,0,L|108:316,1,56,2|0,0:0|0:0,0:0:0:0:
44,328,19107,6,0,P|104:332|156:364,1,112,2|2,0:0|0:0,0:0:0:0:
228,364,19636,2,0,P|256:328|256:248,1,112,0|0,0:0|0:0,0:0:0:0:
224,196,20165,2,0,L|156:196,1,56,2|0,0:0|0:0,0:0:0:0:
228,120,20518,2,0,L|364:120,2,112,2|2|0,0:0|0:0|0:0,0:0:0:0:
88,196,21577,1,2,0:0:0:0:
224,272,21930,6,0,L|340:272,1,112,2|2,0:0|0:0,0:0:0:0:
492,260,22636,2,0,P|496:208|464:132,1,112,2|2,0:0|0:0,0:0:0:0:
444,80,23165,1,0,0:0:0:0:
372,48,23342,2,0,L|240:72,1,112,2|2,0:0|0:0,0:0:0:0:
188,92,23871,1,0,0:0:0:0:
144,156,24048,2,0,B|132:220|132:220|144:284,1,112,2|2,0:0|0:0,0:0:0:0:
324,300,24754,6,0,P|272:336|204:336,1,112,4|2,0:0|0:0,0:0:0:0:
148,352,25283,1,0,0:0:0:0:
72,344,25460,2,0,B|32:316|32:316|44:296|44:232,1,112,2|2,0:0|0:0,0:0:0:0:
60,176,25989,1,0,0:0:0:0:
108,112,26165,2,0,B|148:116|176:132|176:132|236:108,1,112,2|2,0:0|0:0,0:0:0:0:
292,100,26695,1,0,0:0:0:0:
348,152,26871,2,0,L|360:232,1,56,2|0,0:0|0:0,0:0:0:0:
292,252,27224,2,0,L|300:316,1,56,2|0,0:0|0:0,0:0:0:0:
232,344,27577,6,0,P|176:338|104:356,1,112,2|2,0:0|0:0,0:0:0:0:
44,344,28107,1,0,0:0:0:0:
84,276,28283,2,0,P|88:220|76:140,1,112,2|2,0:0|0:0,0:0:0:0:
204,60,28989,2,0,B|244:60|244:60|272:52|272:52|340:60,1,112,2|2,0:0|0:0,0:0:0:0:
412,180,29695,2,0,P|424:228|404:308,1,112,2|2,0:0|0:0,0:0:0:0:
352,340,30224,1,0,0:0:0:0:
276,256,30401,6,0,P|248:252|156:268,1,112,6|2,0:0|0:0,0:0:0:0:
124,328,30930,2,0,P|128:276|92:228,2,112,0|0|0,0:0|0:0|0:0,0:0:0:0:
12,236,31813,2,0,P|36:176|96:148,1,112,2|2,0:0|0:0,0:0:0:0:
152,160,32342,1,0,0:0:0:0:
208,104,32518,2,0,P|262:110|306:144,1,112,2|2,0:0|0:0,0:0:0:0:
368,192,33048,1,0,0:0:0:0:
428,240,33224,6,0,L|412:352,2,112,2|2|2,0:0|0:0|0:0,0:0:0:0:
276,208,34283,2,0,L|220:208,1,56,2|0,0:0|0:0,0:0:0:0:
112,212,34636,1,4,0:0:0:0:
160,296,34813,2,0,P|156:332|164:364,1,56,8|0,0:0|0:0,0:0:0:0:
244,328,35165,1,2,0:0:0:0:
276,208,35342,2,0,P|279:180|275:152,1,56,8|4,0:0|0:3,0:0:0:0:
368,100,35695,2,0,P|364:136|372:168,1,56,4|4,0:3|0:3,0:0:0:0:
384,272,36048,6,0,P|440:280|508:232,1,125.999996154785,4|0,0:0|0:0,0:0:0:0:
508,160,36577,1,2,0:0:0:0:
428,200,36754,2,0,L|444:324,1,125.999996154785,8|0,0:0|0:0,0:0:0:0:
360,356,37283,2,0,P|328:344|292:336,1,62.9999980773926,2|0,0:0|0:0,0:0:0:0:
184,304,37636,2,0,L|176:172,1,125.999996154785,8|0,0:0|0:0,0:0:0:0:
176,88,38165,1,8,0:0:0:0:
344,36,38518,1,2,0:0:0:0:
428,192,38871,6,0,P|428:264|388:308,1,125.999996154785,4|0,0:0|0:0,0:0:0:0:
324,252,39401,1,2,0:0:0:0:
264,316,39577,2,0,P|196:308|120:328,1,125.999996154785,8|0,0:0|0:0,0:0:0:0:
80,256,40107,2,0,P|70:228|64:184,1,62.9999980773926,2|0,0:0|0:0,0:0:0:0:
112,88,40460,2,0,L|236:108,1,125.999996154785,8|0,0:0|0:0,0:0:0:0:
324,104,40989,2,0,P|330:73|328:32,1,62.9999980773926,8|4,0:0|0:3,0:0:0:0:
364,168,41342,2,0,P|389:149|414:115,1,62.9999980773926,4|4,0:3|0:3,0:0:0:0:
336,248,41695,6,0,P|366:249|407:239,2,62.9999980773926,4|0|8,0:0|0:0|0:0,0:0:0:0:
256,216,42224,2,0,P|184:220|116:260,1,125.999996154785,0|2,0:0|0:0,0:0:0:0:
52,268,42754,2,0,L|40:188,1,62.9999980773926,8|0,0:0|0:0,0:0:0:0:
99,135,43107,6,0,P|131:140|162:138,2,62.9999980773926,2|0|8,0:0|0:0|0:0,0:0:0:0:
140,56,43636,2,0,P|200:60|244:132,1,125.999996154785,2|2,0:0|0:0,0:0:0:0:
268,192,44165,2,0,P|304:184|344:184,1,62.9999980773926,8|0,0:0|0:0,0:0:0:0:
436,224,44518,6,0,P|396:292|332:300,1,125.999996154785,4|8,0:0|0:0,0:0:0:0:
268,288,45048,2,0,P|216:272|144:292,1,125.999996154785,0|0,0:0|0:0,0:0:0:0:
64,320,45577,1,8,0:0:0:0:
20,220,45754,6,0,L|32:80,1,125.999996154785,4|2,0:0|0:0,0:0:0:0:
100,40,46283,1,8,0:0:0:0:
260,116,46636,1,2,0:0:0:0:
428,60,46989,1,8,0:0:0:0:
428,60,47165,6,0,P|436:128|436:200,1,125.999996154785,12|2,0:0|0:0,0:0:0:0:
388,260,47695,2,0,L|396:348,1,62.9999980773926,8|4,0:0|0:3,0:0:0:0:
304,264,48048,2,0,L|308:180,1,62.9999980773926,8|8,0:0|0:0,0:0:0:0:
348,124,48401,1,8,0:0:0:0:
312,44,48577,1,4,0:0:0:0:
292,52,48930,5,8,0:0:0:0:
208,92,49107,2,0,P|168:120|156:149,1,62.9999980773926,8|0,0:0|0:0,0:0:0:0:
124,220,49460,1,8,0:0:0:0:
168,296,49636,1,2,0:0:0:0:
212,220,49813,1,4,0:3:0:0:
300,272,49989,6,0,P|316:208|272:136,1,140,4|0,0:0|0:0,0:0:0:0:
216,68,50518,2,0,L|292:48,1,70,8|0,0:0|0:0,0:0:0:0:
380,40,50871,2,0,P|417:38|468:56,1,70,2|0,0:0|0:0,0:0:0:0:
440,144,51224,2,0,P|402:145|352:128,1,70,8|0,0:0|0:0,0:0:0:0:
272,112,51577,6,0,P|216:68|132:68,1,140,2|8,0:0|0:0,0:0:0:0:
112,152,52107,2,0,P|168:196|252:196,1,140,0|8,0:0|0:1,0:0:0:0:
332,204,52636,1,8,0:0:0:0:
392,132,52813,6,0,P|423:192|408:259,1,140,4|0,0:0|0:0,0:0:0:0:
332,320,53342,1,8,0:0:0:0:
256,256,53518,2,0,P|240:189|271:128,1,140,0|2,0:0|0:0,0:0:0:0:
328,52,54048,1,8,0:0:0:0:
192,48,54224,6,0,L|104:48,1,70,4|0,0:0|0:0,0:0:0:0:
24,136,54577,2,0,L|94:136,1,70,4|0,0:0|0:0,0:0:0:0:
208,208,54930,2,0,P|204:288|164:336,1,140,4|8,0:0|0:1,0:0:0:0:
100,284,55460,1,8,0:1:0:0:
124,204,55636,1,0,0:0:0:0:
168,132,55813,6,0,P|236:96|316:120,1,140,4|8,0:0|0:0,0:0:0:0:
384,148,56342,1,0,0:0:0:0:
444,228,56518,2,0,P|436:284|424:308,1,70,2|2,0:0|0:0,0:0:0:0:
356,356,56871,1,8,0:0:0:0:
264,288,57048,6,0,B|212:272|212:272|116:296,1,140
32,284,57577,2,0,P|28:251|32:200,1,70,8|0,0:0|0:0,0:0:0:0:
112,160,57930,2,0,P|115:127|112:76,1,70,2|2,0:0|0:0,0:0:0:0:
188,28,58283,1,8,0:0:0:0:
284,24,58460,1,0,0:0:0:0:
364,112,58636,6,0,L|400:188,1,70,4|0,0:0|0:0,0:0:0:0:
388,272,58989,2,0,L|376:348,1,70,8|0,0:0|0:0,0:0:0:0:
248,336,59342,2,0,L|237:266,1,70,2|2,0:0|0:0,0:0:0:0:
231,170,59695,2,0,L|260:106,1,70,8|0,0:0|0:0,0:0:0:0:
300,20,60048,5,8,0:0:0:0:
172,12,60224,1,8,0:0:0:0:
168,36,60577,6,0,L|165:70,2,35,0|0|8,3:0|3:0|0:0,0:0:0:0:
76,80,60930,1,4,0:3:0:0:
104,176,61107,1,4,0:3:0:0:
228,132,61283,6,0,B|278:131|312:116|312:116|364:127,1,140,4|0,0:0|0:0,0:0:0:0:
460,100,61813,2,0,P|469:66|461:33,1,70,8|0,0:0|0:0,0:0:0:0:
364,127,62165,2,0,P|354:160|362:193,1,70,2|0,0:0|0:0,0:0:0:0:
404,284,62518,2,0,P|364:292|332:284,1,70,8|0,0:0|0:0,0:0:0:0:
228,232,62871,6,0,P|156:276|88:276,1,140,2|8,0:0|0:0,0:0:0:0:
20,260,63401,2,0,P|72:276|112:360,1,140,0|8,0:0|0:1,0:0:0:0:
31,344,63930,1,8,0:0:0:0:
188,352,64107,6,0,L|348:360,1,140,4|0,0:0|0:0,0:0:0:0:
420,324,64636,2,0,P|440:260|432:176,1,140,8|2,0:0|0:0,0:0:0:0:
432,88,65165,1,2,0:0:0:0:
340,120,65342,1,8,0:0:0:0:
240,40,65518,6,0,P|206:38|152:40,1,70,4|0,0:0|0:0,0:0:0:0:
140,168,65871,2,0,P|174:167|209:169,1,70,4|0,0:0|0:0,0:0:0:0:
340,120,66224,2,0,P|400:148|484:168,1,140,4|8,0:0|0:1,0:0:0:0:
500,72,66754,1,8,0:0:0:0:
471,166,66930,1,0,0:0:0:0:
436,260,67107,6,0,P|376:288|288:308,1,140,4|8,0:0|0:0,0:0:0:0:
220,260,67636,1,0,0:0:0:0:
232,164,67813,2,0,B|230:153|220:128|176:99,1,70,2|2,0:0|0:0,0:0:0:0:
124,180,68165,1,8,0:0:0:0:
220,260,68342,6,0,P|292:236|324:168,1,140
336,100,68871,2,0,L|324:16,1,70,8|0,0:0|0:0,0:0:0:0:
216,40,69224,2,0,L|206:109,1,70,2|2,0:0|0:0,0:0:0:0:
148,188,69577,1,8,0:0:0:0:
88,112,69754,1,0,0:0:0:0:
40,232,69930,6,0,L|76:308,1,70,4|0,0:0|0:0,0:0:0:0:
164,272,70283,2,0,L|200:348,1,70,8|0,0:0|0:0,0:0:0:0:
292,332,70636,2,0,L|328:256,1,70,2|2,0:0|0:0,0:0:0:0:
416,292,70989,2,0,L|452:216,1,70,8|0,0:0|0:0,0:0:0:0:
396,108,71342,5,8,0:0:0:0:
368,88,72754,6,0,P|296:76|272:80,2,70,4|0|2,0:0|0:0|0:0,0:0:0:0:
360,188,73283,2,0,P|325:190|291:200,2,70,4|0|2,0:0|0:0|0:0,0:0:0:0:
408,280,73813,1,8,0:0:0:0:
260,296,73989,6,0,L|340:340,1,70,4|0,0:0|0:0,0:0:0:0:
408,280,74342,1,0,0:0:0:0:
444,188,74518,6,0,P|460:155|464:118,1,70,4|2,0:0|0:0,0:0:0:0:
304,136,74871,2,0,P|318:169|343:196,1,70,4|8,0:0|0:0,0:0:0:0:
408,44,75224,2,0,P|373:43|339:53,1,70,8|8,0:0|0:0,0:0:0:0:
212,112,75577,6,0,P|168:112|96:80,1,105,4|0,0:0|0:0,0:0:0:0:
68,76,75930,2,0,P|79:109|88:148,1,70,8|0,0:0|0:0,0:0:0:0:
120,236,76283,1,8,0:0:0:0:
24,244,76460,1,2,0:0:0:0:
24,344,76636,1,8,0:0:0:0:
120,344,76813,6,0,P|192:324|272:336,1,140,2|0,0:0|0:0,0:0:0:0:
352,352,77342,1,8,0:0:0:0:
444,316,77518,2,0,P|476:268|472:188,1,140,2|2,0:0|0:0,0:0:0:0:
440,96,78048,1,8,0:0:0:0:
312,92,78224,6,0,L|280:172,1,70,2|8,0:0|0:0,0:0:0:0:
244,248,78577,1,0,0:0:0:0:
188,168,78754,1,8,0:0:0:0:
336,244,78930,2,0,L|314:310,1,70,2|8,0:0|0:0,0:0:0:0:
228,356,79283,1,2,0:0:0:0:
164,284,79460,1,8,0:0:0:0:
44,360,79636,6,0,B|40:312|16:268|16:268|56:224,1,140,2|0,0:0|0:0,0:0:0:0:
92,128,80165,2,0,L|92:48,1,70,12|0,0:0|0:0,0:0:0:0:
196,140,80518,2,0,L|196:210,1,70,8|0,0:0|0:0,0:0:0:0:
292,120,80871,2,0,L|292:40,1,70,8|0,0:0|0:0,0:0:0:0:
376,192,81224,6,0,P|352:240|304:276,1,105,4|0,0:0|0:0,0:0:0:0:
268,292,81577,2,0,L|360:320,1,70,8|0,0:0|0:0,0:0:0:0:
456,348,81930,1,8,0:0:0:0:
500,260,82107,1,2,0:0:0:0:
480,164,82283,1,8,0:0:0:0:
412,92,82460,6,0,L|260:92,1,140,2|2,0:0|0:0,0:0:0:0:
176,68,82989,1,8,0:0:0:0:
132,156,83165,2,0,B|124:192|112:212|112:212|172:208|196:228,1,140,2|2,0:0|0:0,0:0:0:0:
284,252,83695,1,8,0:0:0:0:
332,168,83871,1,2,0:0:0:0:
428,264,84048,6,0,L|444:340,1,70,8|0,0:0|0:3,0:0:0:0:
480,196,84401,2,0,L|465:127,1,70,8|2,0:0|0:0,0:0:0:0:
332,168,84754,2,0,L|348:244,1,70,8|0,0:0|0:0,0:0:0:0:
384,100,85107,2,0,L|369:31,1,70,8|0,0:0|3:0,3:3:0:0:
236,88,85460,5,10,0:0:0:0:
240,116,86871,6,0,P|272:104|324:104,2,70,4|0|2,0:0|0:0|0:0,0:0:0:0:
120,164,87401,2,0,P|72:144|24:144,1,70,4|2,0:0|0:0,0:0:0:0:
20,232,87754,1,8,0:0:0:0:
96,312,87930,1,8,0:0:0:0:
120,164,88107,1,4,0:0:0:0:
256,192,88195,12,0,89518,0:0:0:0:
