osu file format v14

[General]
AudioFilename: kirakira.mp3
AudioLeadIn: 0
PreviewTime: 49901
Countdown: 0
SampleSet: Soft
StackLeniency: 0.7
Mode: 0
LetterboxInBreaks: 0
WidescreenStoryboard: 0

[Editor]
Bookmarks: 13460,24754,36049,49990
DistanceSpacing: 1
BeatDivisor: 4
GridSize: 4
TimelineZoom: 1

[Metadata]
Title:Kira Kira
TitleUnicode:キラキラ
Artist:Tomohisa Sako
ArtistUnicode:佐香 智久
Creator:Xinely
Version:Easy
Source:ポケットモンスター XY
Tags:Pokémon Pokemon Pocket Monster Pachiru 少年T ShounenT
BeatmapID:1186084
BeatmapSetID:560933

[Difficulty]
HPDrainRate:2
CircleSize:3
OverallDifficulty:2
ApproachRate:3
SliderMultiplier:0.9
SliderTickRate:1

[Events]
//Background and Video events
0,0,"fokko waifu copy.jpg",0,0
//Break Periods
//Storyboard Layer 0 (Background)
//Storyboard Layer 1 (Fail)
//Storyboard Layer 2 (Pass)
//Storyboard Layer 3 (Foreground)
//Storyboard Sound Samples

[TimingPoints]
755,352.941176470588,4,2,1,30,1,0
1813,-100,4,2,1,60,0,0
2166,352.941176470588,4,2,1,60,1,0
13460,-100,4,2,2,40,0,0
34636,-100,4,2,1,50,0,0
36048,-100,4,2,1,50,0,0
41695,-100,4,2,2,60,0,0
49989,-100,4,2,2,70,0,1
60224,-100,4,2,1,50,0,0
61283,-100,4,2,2,70,0,1
71342,-100,4,2,1,60,0,0
75577,-100,4,2,1,70,0,1
85460,-100,4,2,1,70,0,0
86871,-100,4,2,2,70,0,0

[Colours]
Combo1 : 255,140,85
Combo2 : 85,255,85
Combo3 : 102,171,255

[HitObjects]
168,196,755,6,0,P|124:176|76:176,2,90,4|4|4,0:0|0:0|0:0,0:0:0:0:
248,240,1813,1,8,0:0:0:0:
320,184,2166,6,0,L|320:88,1,90,4|8,0:0|0:0,0:0:0:0:
244,44,2871,2,0,P|176:35|104:64,1,135,10|2,0:0|0:0,0:0:0:0:
56,124,3754,1,2,0:0:0:0:
108,200,4107,2,0,P|144:264|152:336,1,135,2|8,0:0|0:1,0:0:0:0:
236,356,4989,6,0,L|332:328,1,90,10|8,0:0|0:0,0:0:0:0:
384,268,5695,2,0,B|385:237|408:204|408:204|384:176|384:132,1,135,10|2,0:0|0:0,0:0:0:0:
328,72,6577,1,6,0:0:0:0:
264,132,6930,2,0,B|232:144|208:168|208:168|176:148|136:160,1,135,2|8,0:0|0:1,0:0:0:0:
56,176,7813,5,4,0:0:0:0:
76,264,8165,1,8,0:0:0:0:
160,240,8518,2,0,B|192:252|216:276|216:276|248:256|288:268,1,135,10|2,0:0|0:0,0:0:0:0:
368,296,9401,1,2,0:0:0:0:
360,208,9754,2,0,P|364:152|388:72,1,135,2|8,0:0|0:1,0:0:0:0:
468,116,10636,6,0,P|458:159|452:204,1,90,10|8,0:0|0:0,0:0:0:0:
436,292,11342,2,0,L|301:302,1,135,8|14,0:0|0:0,0:0:0:0:
212,300,12224,2,0,P|140:224|36:288,1,225,8|4,0:0|0:3,0:0:0:0:
124,312,13460,6,0,L|138:132,2,180,4|2|2,0:0|0:0|0:0,0:0:0:0:
308,336,15577,1,2,0:0:0:0:
452,228,16283,2,0,P|432:184|328:96,1,180,2|2,0:0|0:0,0:0:0:0:
156,100,17695,2,0,P|83:151|38:229,1,180,2|2,0:0|0:0,0:0:0:0:
88,304,18754,1,2,0:0:0:0:
172,332,19107,6,0,L|368:332,2,180,2|2|2,0:0|0:0|0:0,0:0:0:0:
268,180,21224,1,2,0:0:0:0:
92,228,21930,2,0,P|52:312|104:388,1,180,2|2,0:0|0:0,0:0:0:0:
267,333,23342,2,0,P|307:256|268:180,1,180,2|2,0:0|0:0,0:0:0:0:
208,112,24401,1,2,0:0:0:0:
180,28,24754,6,0,P|220:16|272:8,1,90,4|2,0:0|0:0,0:0:0:0:
320,80,25460,2,0,P|360:92|412:100,1,90,2|2,0:0|0:0,0:0:0:0:
484,144,26165,2,0,P|508:212|508:328,1,180,2|2,0:0|0:0,0:0:0:0:
424,348,27224,1,2,0:0:0:0:
336,340,27577,6,0,B|292:348|252:320|252:320|208:360|152:344,2,180,2|2|2,0:0|0:0|0:0,0:0:0:0:
316,248,29342,2,0,P|308:200|316:144,1,90,2|2,0:0|0:0,0:0:0:0:
352,76,30048,1,2,0:0:0:0:
268,36,30401,6,0,P|196:32|112:96,1,180,6|2,0:0|0:0,0:0:0:0:
84,180,31460,1,2,0:0:0:0:
140,248,31813,2,0,B|204:264|252:228|252:228|284:224|320:248,2,180,2|2|2,0:0|0:0|0:0,0:0:0:0:
48,244,33577,6,0,P|37:296|40:333,1,90,2|2,0:0|0:0,0:0:0:0:
128,352,34283,1,2,0:0:0:0:
216,352,34636,2,0,B|260:328|296:344|296:344|344:368|400:340,1,180,4|4,0:0|0:3,0:0:0:0:
472,308,35695,1,4,0:3:0:0:
496,220,36048,6,0,P|462:138|382:103,1,180,4|8,0:0|0:0,0:0:0:0:
204,104,37460,2,0,P|123:139|90:220,1,180,0|8,0:0|0:0,0:0:0:0:
140,296,38518,1,2,0:0:0:0:
220,336,38871,6,0,P|300:301|333:219,1,180,4|8,0:0|0:0,0:0:0:0:
348,40,40283,2,0,P|429:73|464:153,1,180,0|8,0:0|0:0,0:0:0:0:
448,244,41342,1,4,0:3:0:0:
364,280,41695,6,0,P|304:260|224:260,2,135,4|0|8,0:0|0:0|0:0,0:0:0:0:
380,192,43107,2,0,P|330:152|255:125,2,135,2|2|8,0:0|0:0|0:0,0:0:0:0:
364,280,44518,5,4,0:0:0:0:
284,320,44871,1,8,0:0:0:0:
200,288,45224,2,0,P|128:272|56:300,2,135,0|4|0,0:0|0:0|0:0,0:0:0:0:
268,232,46636,6,0,P|292:164|268:97,2,135,2|4|0,0:0|0:0|0:0,0:0:0:0:
324,304,48048,2,0,P|390:308|448:272,1,135,8|4,0:0|0:0,0:0:0:0:
484,192,48930,2,0,P|471:126|424:79,1,135,8|8,0:0|0:0,0:0:0:0:
292,64,49989,6,0,L|144:40,1,135,4|8,0:0|0:0,0:0:0:0:
96,104,50871,2,0,P|81:146|82:191,1,90,2|8,0:0|0:0,0:0:0:0:
148,252,51577,2,0,L|296:276,1,135,2|0,0:0|0:0,0:0:0:0:
368,296,52460,1,8,0:1:0:0:
436,236,52813,6,0,P|416:176|312:140,1,180,4|0,0:0|0:0,0:0:0:0:
232,184,53871,1,2,0:0:0:0:
144,188,54224,2,0,L|52:188,1,90,4|4,0:0|0:0,0:0:0:0:
100,268,54930,2,0,L|248:268,1,135,4|8,0:0|0:1,0:0:0:0:
320,232,55813,6,0,P|328:192|320:142,1,90,4|8,0:0|0:0,0:0:0:0:
280,64,56518,2,0,P|216:60|154:107,2,135,0|0|8,0:0|0:0|0:0,0:0:0:0:
368,72,57930,2,0,L|468:68,1,90,2|8,0:0|0:0,0:0:0:0:
492,152,58636,5,4,0:0:0:0:
444,228,58989,2,0,P|441:285|444:318,2,90,8|2|0,0:0|0:0|0:0,0:0:0:0:
380,164,60048,2,0,P|312:120|216:136,1,180,8|8,0:0|0:0,0:0:0:0:
92,188,61283,6,0,B|104:280|104:280|84:336,1,135,4|8,0:0|0:0,0:0:0:0:
164,372,62165,2,0,L|264:372,1,90,2|8,0:0|0:0,0:0:0:0:
344,372,62871,2,0,P|388:348|432:268,1,135,2|0,0:0|0:0,0:0:0:0:
456,192,63754,1,8,0:1:0:0:
464,100,64107,6,0,P|433:40|377:4,1,135,4|8,0:0|0:0,0:0:0:0:
292,28,64989,2,0,P|268:88|288:172,1,135,8|4,0:0|0:0,0:0:0:0:
316,240,65871,1,4,0:0:0:0:
264,316,66224,2,0,P|199:309|129:316,1,135,4|8,0:0|0:0,0:0:0:0:
44,288,67107,6,0,L|32:192,1,90,4|8,0:0|0:0,0:0:0:0:
64,112,67813,2,0,B|92:80|136:76|136:76|148:104|188:120,2,135,2|0|8,0:0|0:0|0:0,0:0:0:0:
116,188,69224,2,0,L|132:296,1,90,2|8,0:0|0:0,0:0:0:0:
200,332,69930,5,4,0:0:0:0:
268,276,70283,2,0,P|312:264|364:264,2,90,8|2|8,0:0|0:0|0:0,0:0:0:0:
188,232,71342,2,0,B|184:180|136:148|136:148|208:128|252:156|252:156|316:136,1,270,8|0,0:0|0:0,0:0:0:0:
388,136,72754,6,0,P|416:92|384:12,2,135,4|4|8,0:0|0:0|0:0,0:0:0:0:
232,224,74518,2,0,L|128:212,2,90,4|4|8,0:0|0:0|0:0,0:0:0:0:
316,256,75577,6,0,P|368:244|420:236,1,90,4|8,0:0|0:0,0:0:0:0:
488,204,76283,2,0,P|481:144|488:52,1,135,8|2,0:0|0:0,0:0:0:0:
404,36,77165,1,0,0:0:0:0:
316,40,77518,2,0,P|248:72|176:76,1,135,2|8,0:0|0:0,0:0:0:0:
100,84,78401,6,0,L|112:184,1,90,8|8,0:0|0:0,0:0:0:0:
156,252,79107,2,0,P|192:296|208:372,2,135,8|2|12,0:0|0:0|0:0,0:0:0:0:
196,172,80518,2,0,P|240:172|300:160,1,90,8|8,0:0|0:0,0:0:0:0:
372,132,81224,6,0,P|448:136|500:224,1,180,4|8,0:0|0:0,0:0:0:0:
460,300,82283,1,8,0:0:0:0:
376,332,82636,2,0,L|236:336,2,135,0|2|8,0:0|0:0|0:0,0:0:0:0:
352,244,84048,6,0,P|244:204|360:56,1,360,8|10,0:0|0:0,0:0:0:0:
80,292,86871,6,0,L|88:136,1,135,4|4,0:0|0:0,0:0:0:0:
128,76,87754,2,0,L|130:31,2,45,8|8|4,0:0|0:0|0:0,0:0:0:0:
256,192,88283,12,0,89518,0:0:0:0:
