osu file format v14

[General]
AudioFilename: Floria.mp3
AudioLeadIn: 0
PreviewTime: 65716
Countdown: 0
SampleSet: Soft
StackLeniency: 0.7
Mode: 0
LetterboxInBreaks: 0
WidescreenStoryboard: 1

[Editor]
DistanceSpacing: 2
BeatDivisor: 6
GridSize: 4
TimelineZoom: 1.800001

[Metadata]
Title:Floria -TV Anime Size-
TitleUnicode:フローリア -TVアニメサイズ-
Artist:Tomohisa Sako
ArtistUnicode:佐香 智久
Creator:Ryuusei Aika
Version:Flower
Source:夏目友人帳 陸
Tags:op opening natsume yuujinchou roku Abhor [_Abhor_] Shounen T 少年T
BeatmapID:1267077
BeatmapSetID:598791

[Difficulty]
HPDrainRate:6
CircleSize:4.1
OverallDifficulty:7
ApproachRate:8
SliderMultiplier:2.8
SliderTickRate:1

[Events]
//Background and Video events
Video,0,"Floria.avi"
0,0,"BG.jpg",0,0
//Break Periods
//Storyboard Layer 0 (Background)
//Storyboard Layer 1 (Fail)
//Storyboard Layer 2 (Pass)
//Storyboard Layer 3 (Foreground)
//Storyboard Sound Samples

[TimingPoints]
930,989.119683481701,4,2,2,20,1,0
930,-125,4,2,2,20,0,0
7853,-90.9090909090909,4,2,2,50,0,0
8842,-83.3333333333333,4,2,1,80,0,0
16755,-111.111111111111,4,2,1,40,0,0
17745,-111.111111111111,4,2,2,40,0,0
23679,-111.111111111111,4,2,1,50,0,0
24668,-99.9999999999999,4,2,1,50,0,0
32581,-90.9090909090909,4,2,1,60,0,0
50385,989.119683481701,4,2,1,40,1,0
57308,-100,4,2,1,50,0,0
58297,-90.9090909090909,4,2,1,60,0,0
64232,-90.9090909090909,4,2,1,70,0,0
65881,-111.111111111111,4,2,1,60,0,0
66210,-76.9230769230769,4,2,1,80,0,1
85004,-76.9230769230769,4,2,1,80,0,0
88630,-76.9230769230769,4,2,1,20,0,0

[Colours]
Combo1 : 82,148,59
Combo2 : 229,184,143
Combo3 : 148,127,62
Combo4 : 234,235,32

[HitObjects]
102,43,930,6,0,L|94:117,1,74.6666666666667,4|0,0:0|0:0,0:0:0:0:
87,191,1424,1,0,0:0:0:0:
160,199,1589,2,0,L|197:203,1,37.3333333333333
252,151,1919,6,0,P|288:148|324:159,1,74.6666666666667,4|0,0:0|0:0,0:0:0:0:
380,208,2413,1,0,0:0:0:0:
436,257,2578,2,0,L|473:254,1,37.3333333333333
460,328,2908,6,0,L|385:333,1,74.6666666666667,4|0,0:0|0:0,0:0:0:0:
329,382,3402,1,0,0:0:0:0:
271,332,3567,2,0,P|252:327|234:329,1,37.3333333333333
178,379,3897,6,0,P|161:347|161:310,1,74.6666666666667,4|0,0:0|0:0,0:0:0:0:
213,256,4391,1,4,0:0:0:0:
139,238,4556,1,0,0:0:0:0:
86,293,4721,1,4,0:0:0:0:
33,348,4886,6,0,P|12:311|14:268,1,74.6666666666667,4|0,0:0|0:0,0:0:0:0:
61,221,5381,1,0,0:0:0:0:
110,162,5545,2,0,L|98:126,1,37.3333333333333
62,58,5875,6,0,P|98:49|134:59,1,74.6666666666667,4|0,0:0|0:0,0:0:0:0:
201,95,6370,2,0,L|237:83,2,37.3333333333333
201,169,6864,6,0,L|228:252,1,74.6666666666667,4|0,0:0|0:0,0:0:0:0:
289,277,7359,1,0,0:0:0:0:
353,240,7524,2,0,L|365:204,1,37.3333333333333
465,309,7853,5,4,0:0:0:0:
510,177,8183,1,4,0:0:0:0:
465,45,8513,1,4,0:0:0:0:
300,101,8842,6,0,P|245:112|191:88,2,111.999996582031,12|0|0,0:0|0:0|0:0,0:0:0:0:
158,31,9832,2,0,L|147:143,1,111.999996582031,8|0,0:0|0:0,0:0:0:0:
56,270,10491,1,0,0:0:0:0:
237,303,10821,6,0,L|349:315,2,111.999996582031,8|0|0,0:0|0:0|0:0,0:0:0:0:
171,154,11810,1,8,0:0:0:0:
320,88,12140,2,0,P|346:89|373:100,1,55.9999982910157
426,157,12469,2,0,P|438:180|442:208,1,55.9999982910157
413,313,12799,6,0,L|357:307,1,55.9999982910157,8|0,0:0|0:0,0:0:0:0:
284,277,13129,2,0,L|228:282,1,55.9999982910157
155,313,13458,2,0,L|99:308,1,55.9999982910157
26,276,13788,2,0,B|30:216|94:185,2,111.999996582031,8|0|0,0:0|0:0|0:0,0:0:0:0:
171,154,14777,5,8,0:0:0:0:
171,154,15107,2,0,L|226:156,1,55.9999982910157
304,173,15437,2,0,L|301:228,1,55.9999982910157
293,314,15766,1,8,0:0:0:0:
293,314,16096,1,2,0:0:0:0:
394,252,16261,1,2,0:0:0:0:
422,344,16426,1,8,0:0:0:0:
478,160,16755,6,0,P|436:133|356:131,1,125.999996154785,4|0,0:0|0:0,0:0:0:0:
321,143,17415,1,0,0:0:0:0:
256,89,17745,2,0,L|166:76,2,83.9999974365235,4|0|0,0:0|0:0|0:0,0:0:0:0:
246,172,18734,6,0,L|233:261,2,83.9999974365235,4|0|0,0:0|0:0|0:0,0:0:0:0:
256,89,19723,2,0,P|214:94|181:119,1,83.9999974365235,4|0,0:0|0:0,0:0:0:0:
129,185,20382,1,0,0:0:0:0:
75,250,20712,6,0,L|176:329,1,125.999996154785,4|0,0:0|0:0,0:0:0:0:
206,353,21371,1,0,0:0:0:0:
267,294,21701,2,0,P|305:278|346:282,2,83.9999974365235,4|0|0,0:0|0:0|0:0,0:0:0:0:
318,361,22690,6,0,P|359:364|397:348,2,83.9999974365235,4|0|0,0:0|0:0|0:0,0:0:0:0:
375,203,23679,1,6,0:0:0:0:
375,203,24009,1,2,0:0:0:0:
292,138,24174,1,2,0:0:0:0:
215,170,24339,2,0,L|211:211,1,41.9999987182618,8|0,0:0|0:0,0:0:0:0:
191,303,24668,6,0,L|52:318,1,140,12|0,0:0|0:0,0:0:0:0:
94,157,25493,1,0,0:0:0:0:
94,157,25657,2,0,L|186:167,1,93.3333333333333,8|0,0:0|0:0,0:0:0:0:
256,77,26317,1,0,0:0:0:0:
349,173,26647,6,0,L|404:170,1,46.6666666666667,8|0,0:0|0:0,0:0:0:0:
464,209,26976,1,0,0:0:0:0:
464,209,27141,2,0,L|466:264,1,46.6666666666667
428,324,27471,1,0,0:0:0:0:
428,324,27636,2,0,P|381:339|334:327,1,93.3333333333333,8|0,0:0|0:0,0:0:0:0:
256,253,28295,2,0,L|240:310,1,46.6666666666667
182,356,28625,6,0,B|117:311|49:349,1,140,8|0,0:0|0:0,0:0:0:0:
57,236,29449,1,0,0:0:0:0:
57,236,29614,2,0,L|63:189,1,46.6666666666667,8|0,0:0|0:0,0:0:0:0:
132,160,29944,2,0,L|138:113,1,46.6666666666667
208,85,30273,2,0,L|215:38,1,46.6666666666667
267,131,30603,5,2,0:0:0:0:
452,67,31098,2,0,L|448:120,1,46.6666666666667
416,191,31427,1,0,0:0:0:0:
416,191,31510,1,0,0:0:0:0:
416,191,31592,2,0,L|370:187,1,46.6666666666667,2|0,0:0|0:0,0:0:0:0:
303,243,31922,1,2,0:0:0:0:
267,131,32087,1,2,0:0:0:0:
188,180,32252,2,0,P|164:181|138:175,1,46.6666666666667,8|8,0:0|0:0,0:0:0:0:
103,92,32581,6,0,L|85:264,1,154.000004699707,4|0,0:0|0:0,0:0:0:0:
144,298,33241,1,0,0:0:0:0:
272,214,33570,1,2,0:0:0:0:
356,342,33900,2,0,L|411:336,1,51.3333348999024
474,279,34230,2,0,L|468:224,1,51.3333348999024
390,159,34560,5,2,0:0:0:0:
305,30,34889,2,0,L|249:36,1,51.3333348999024
187,93,35219,2,0,L|192:147,1,51.3333348999024
114,213,35549,1,2,0:0:0:0:
202,339,35878,2,0,L|253:361,1,51.3333348999024
335,343,36208,2,0,L|357:293,1,51.3333348999024
374,193,36538,6,0,P|455:165|514:221,1,154.000004699707,2|0,0:0|0:0,0:0:0:0:
437,244,37197,1,0,0:0:0:0:
447,80,37527,1,2,0:0:0:0:
270,25,37857,2,0,P|244:20|219:22,1,51.3333348999024
188,109,38186,2,0,P|213:113|238:112,1,51.3333348999024
144,44,38516,5,2,0:0:0:0:
35,192,38846,2,0,P|30:218|32:243,1,51.3333348999024
119,274,39175,2,0,P|124:248|122:222,1,51.3333348999024
54,318,39505,1,2,0:0:0:0:
188,109,39835,1,2,0:0:0:0:
269,212,40000,1,2,0:0:0:0:
334,135,40165,2,0,L|384:129,1,51.3333348999024,8|8,0:0|0:0,0:0:0:0:
475,151,40494,6,0,L|373:162,1,102.666669799805,6|0,0:0|0:0,0:0:0:0:
353,253,40989,2,0,L|364:355,1,102.666669799805
263,333,41483,1,2,0:0:0:0:
172,314,41813,1,0,0:0:0:0:
81,295,42143,1,0,0:0:0:0:
47,197,42473,6,0,P|39:171|40:138,1,51.3333348999024,2|0,0:0|0:0,0:0:0:0:
63,60,42802,1,0,0:0:0:0:
63,61,42967,2,0,L|69:2,1,51.3333348999024
162,19,43297,1,0,0:0:0:0:
149,126,43462,1,2,0:0:0:0:
233,192,43791,1,0,0:0:0:0:
318,258,44121,1,0,0:0:0:0:
348,46,44451,6,0,P|423:42|490:78,1,154.000004699707,2|0,0:0|0:0,0:0:0:0:
379,225,45275,1,0,0:0:0:0:
321,298,45440,2,0,L|220:318,1,102.666669799805,2|0,0:0|0:0,0:0:0:0:
36,303,46099,1,0,0:0:0:0:
156,117,46429,5,2,0:0:0:0:
156,117,46759,2,0,L|206:127,1,51.3333348999024
293,96,47088,2,0,L|343:105,1,51.3333348999024
445,72,47418,1,2,0:0:0:0:
503,247,47748,1,2,0:0:0:0:
415,335,47913,1,2,0:0:0:0:
341,262,48078,2,0,L|291:276,1,51.3333348999024,8|8,0:0|0:0,0:0:0:0:
171,310,48407,6,0,L|129:161,1,154.000004699707,8|8,0:0|0:0,0:0:0:0:
69,90,49067,2,0,L|18:104,1,51.3333348999024
129,161,49396,2,0,L|178:147,1,51.3333348999024,2|0,0:0|0:0,0:0:0:0:
258,52,49726,1,2,0:0:0:0:
300,169,49891,1,2,0:0:0:0:
352,80,50056,2,0,L|414:63,1,51.3333348999024,8|8,0:0|0:0,0:0:0:0:
488,1,50385,6,0,P|512:65|488:135,1,140,4|0,0:0|0:0,0:0:0:0:
398,226,51209,1,8,0:0:0:0:
398,226,51374,2,0,L|391:319,2,93.3333333333333,8|0|0,0:0|0:0|0:0,0:0:0:0:
252,246,52363,6,0,P|188:269|118:245,1,140,8|0,0:0|0:0,0:0:0:0:
41,135,53187,1,8,0:0:0:0:
41,135,53352,2,0,L|48:42,2,93.3333333333333,8|0|0,0:0|0:0|0:0,0:0:0:0:
178,85,54341,6,0,P|242:61|312:85,1,140,8|0,0:0|0:0,0:0:0:0:
400,186,55165,1,8,0:0:0:0:
400,186,55330,2,0,L|493:193,2,93.3333333333333,8|0|0,0:0|0:0|0:0,0:0:0:0:
300,283,56319,6,0,P|235:309|170:283,1,140,8|0,0:0|0:0,0:0:0:0:
106,209,56979,2,0,L|95:257,1,46.6666666666667,8|0,0:0|0:0,0:0:0:0:
21,192,57308,2,0,L|10:144,1,46.6666666666667,8|0,0:0|0:0,0:0:0:0:
92,62,57638,1,2,0:0:0:0:
174,146,57803,1,2,0:0:0:0:
256,100,57968,2,0,L|301:90,1,46.6666666666667,8|0,0:0|0:0,0:0:0:0:
401,63,58297,6,0,P|452:68|502:113,1,102.666669799805,8|0,0:0|0:0,0:0:0:0:
419,155,58792,2,0,L|410:268,1,102.666669799805
318,305,59287,2,0,P|270:288|222:300,2,102.666669799805,2|0|0,0:0|0:0|0:0,0:0:0:0:
267,376,60111,1,0,0:0:0:0:
158,361,60276,6,0,P|134:313|144:257,1,102.666669799805,8|0,0:0|0:0,0:0:0:0:
199,195,60770,2,0,L|96:185,1,102.666669799805
146,76,61265,1,2,0:0:0:0:
266,121,61595,1,0,0:0:0:0:
364,39,61924,2,0,L|414:28,1,51.3333348999024
379,124,62254,6,0,P|373:168|400:228,1,102.666669799805,8|0,0:0|0:0,0:0:0:0:
449,267,62748,2,0,P|405:260|345:287,1,102.666669799805
248,348,63243,1,2,0:0:0:0:
248,348,63573,2,0,L|242:296,1,51.3333348999024
109,255,63902,2,0,L|103:306,1,51.3333348999024
7,161,64232,6,0,P|15:137|27:115,1,51.3333348999024,12|0,0:0|0:0,0:0:0:0:
149,60,64562,1,2,0:0:0:0:
176,192,64727,1,2,0:0:0:0:
308,166,64892,2,0,P|331:174|354:187,1,51.3333348999024,8|0,0:0|0:0,0:0:0:0:
442,288,65221,1,2,0:0:0:0:
442,288,65881,2,0,L|446:246,1,41.9999987182618
420,61,66210,6,0,P|340:21|258:53,1,181.999991668702,4|0,0:0|0:0,0:0:0:0:
179,147,66870,2,0,L|118:150,1,60.6666638895672
43,264,67200,1,2,0:0:0:0:
43,264,67529,2,0,L|103:267,1,60.6666638895672
223,291,67859,2,0,L|283:294,1,60.6666638895672
411,348,68189,5,2,0:0:0:0:
411,348,68518,2,0,P|425:319|430:290,1,60.6666638895672
454,159,68848,2,0,P|427:146|398:140,1,60.6666638895672
267,116,69178,1,2,0:0:0:0:
267,116,69507,1,0,0:0:0:0:
311,241,69672,1,0,0:0:0:0:
180,215,69837,2,0,P|150:219|117:233,1,60.6666638895672
12,313,70167,6,0,L|0:192,1,121.333327779134,2|0,0:0|0:0,0:0:0:0:
73,96,70661,2,0,L|194:84,1,121.333327779134
298,164,71156,2,0,P|292:224|309:281,1,121.333327779134,2|0,0:0|0:0,0:0:0:0:
381,378,71651,1,0,0:0:0:0:
428,267,71815,2,0,P|430:236|422:208,1,60.6666638895672
336,80,72145,6,0,P|307:70|277:73,1,60.6666638895672,2|0,0:0|0:0,0:0:0:0:
152,120,72475,2,0,L|92:125,1,60.6666638895672
11,247,72805,2,0,L|70:252,1,60.6666638895672
217,313,73134,2,0,P|218:282|208:254,1,60.6666638895672,2|0,0:0|0:0,0:0:0:0:
152,120,73464,1,2,0:0:0:0:
71,252,73629,1,2,0:0:0:0:
208,254,73794,2,0,P|237:251|266:260,1,60.6666638895672,8|0,0:0|0:0,0:0:0:0:
423,356,74123,6,0,P|482:289|472:201,1,181.999991668702,4|0,0:0|0:0,0:0:0:0:
425,89,74783,2,0,L|365:96,1,60.6666638895672
256,26,75112,1,2,0:0:0:0:
256,26,75442,2,0,P|228:20|194:27,1,60.6666638895672
92,88,75772,2,0,P|67:103|48:132,1,60.6666638895672
12,262,76102,5,2,0:0:0:0:
12,262,76431,2,0,L|87:253,1,60.6666638895672
172,324,76761,2,0,L|232:330,1,60.6666638895672
339,247,77091,1,2,0:0:0:0:
339,247,77420,1,0,0:0:0:0:
407,347,77585,1,0,0:0:0:0:
460,239,77750,2,0,P|457:202|443:167,1,60.6666638895672
389,58,78080,6,0,P|330:74|272:61,1,121.333327779134,2|0,0:0|0:0,0:0:0:0:
156,27,78574,2,0,P|97:15|37:31,1,121.333327779134
99,156,79069,2,0,L|101:216,1,60.6666638895672,2|0,0:0|0:0,0:0:0:0:
69,334,79399,2,0,P|99:337|129:333,1,60.6666638895672
245,243,79728,2,0,P|215:240|186:245,1,60.6666638895672
303,368,80058,6,0,P|333:371|362:364,1,60.6666638895672,2|0,0:0|0:0,0:0:0:0:
425,251,80388,2,0,L|444:309,1,60.6666638895672
329,271,80718,2,0,L|339:199,1,60.6666638895672
344,55,81047,2,0,P|313:56|284:64,1,60.6666638895672,2|0,0:0|0:0,0:0:0:0:
187,169,81377,1,2,0:0:0:0:
106,303,81542,1,2,0:0:0:0:
50,178,81707,2,0,L|35:96,1,60.6666638895672,8|0,0:0|0:0,0:0:0:0:
232,31,82036,6,0,P|291:27|344:55,1,121.333327779134,12|0,0:0|0:0,0:0:0:0:
372,176,82531,2,0,L|492:188,1,121.333327779134
456,307,83025,1,2,0:0:0:0:
273,294,83355,2,0,P|243:294|214:305,1,60.6666638895672
86,254,83685,2,0,P|58:264|21:263,1,60.6666638895672
0,111,84015,6,0,P|28:101|64:101,1,60.6666638895672,2|0,0:0|0:0,0:0:0:0:
176,215,84344,1,2,0:0:0:0:
256,30,84509,1,2,0:0:0:0:
355,158,84674,2,0,L|408:201,1,60.6666638895672,8|0,0:0|0:0,0:0:0:0:
512,72,85004,5,6,0:0:0:0:
256,192,85169,12,0,88630,0:0:0:0:
