osu file format v9

[General]
AudioFilename: 9C1567DCd01.mp3
AudioLeadIn: 1000
PreviewTime: 33717
Countdown: 0
SampleSet: Soft
StackLeniency: 0.7
Mode: 0
LetterboxInBreaks: 1

[Editor]
Bookmarks: 8601,48628,59745
DistanceSpacing: 1
BeatDivisor: 4
GridSize: 4

[Metadata]
Title:Soufuu (TV Size)
Artist:Tomofumi Tanizawa
Creator:nante
Version:Insane
Source:Kimi ni Todoke 2nd Season
Tags:second opening op kuronuma sawako [shalon]

[Difficulty]
HPDrainRate:7
CircleSize:4
OverallDifficulty:7
ApproachRate:8
SliderMultiplier:1.8
SliderTickRate:1

[Events]
//Background and Video events
0,0,"Background.png"
Video,-185,"vid.flv"
//Break Periods
//Storyboard Layer 0 (Background)
//Storyboard Layer 1 (Fail)
//Storyboard Layer 2 (Pass)
//Storyboard Layer 3 (Foreground)
//Storyboard Sound Samples
//Background Colour Transformations
3,100,163,162,255

[TimingPoints]
802,422.535211267606,4,2,2,50,1,0
14323,-100,4,2,1,50,0,0
33759,-100,4,2,1,25,0,0
34604,-100,4,2,1,60,0,1
57949,-100,4,1,1,61,0,0

[Colours]
Combo1 : 255,240,255
Combo2 : 166,28,28
Combo3 : 95,65,86
Combo4 : 242,220,168

[HitObjects]
256,32,1647,1,2
256,352,2492,1,2
176,96,3337,6,0,B|208:140|268:124,1,90,2|0
240,40,3759,2,0,B|296:32|324:72,1,90,2|0
320,160,4182,1,0
396,112,4393,1,0
256,352,5027,5,2
256,32,5872,1,2
84,32,6928,6,0,B|24:64|24:124,1,90,0|2
116,108,7351,1,0
428,32,7773,2,0,B|488:64|488:124,1,90,0|2
396,108,8196,1,0
212,340,8618,2,0,B|256:372|320:332,1,90,0|2
256,272,9041,1,0
256,36,10309,5,0
212,112,10520,2,0,B|260:136|320:104,1,90,2|0
256,36,10942,2,0,B|256:228,1,180
424,148,11787,1,2
464,228,11999,2,0,B|476:264|448:284|456:320|456:320|420:308|388:348|336:340,1,180
256,192,14323,5,8
256,192,14745,1,8
80,176,15168,1,0
136,248,15379,1,8
112,336,15590,2,0,B|224:352|248:232,1,180,8|0
240,64,16435,1,8
416,272,17069,5,8
416,360,17280,2,0,B|320:344|344:240|276:220,1,180,8|0
300,232,18125,1,8
332,60,18548,5,0
252,96,18759,2,0,B|284:144|332:152,1,90,8|8
412,152,19182,1,8
456,72,19393,2,0,B|524:152|448:244,1,180,0|8
368,212,20027,1,0
196,184,20449,5,8
260,248,20661,2,0,B|174:308|102:212,2,180,8|0|8
196,184,21717,1,0
144,112,21928,1,0
56,96,22140,6,0,B|4:172,1,90,8|8
32,256,22562,2,0,B|40:316|100:360|192:336,1,180
128,260,23196,1,8
96,176,23407,1,0
168,120,23618,1,0
252,156,23830,5,8
312,88,24041,2,0,B|353:146|345:210|268:240,1,180,8|8
276,236,24886,1,8
136,352,25309,1,0
68,292,25520,5,8
72,204,25731,2,0,B|144:200|172:272,1,90,8|8
152,236,26365,1,0
204,164,26576,1,8
256,236,26787,1,0
296,160,26999,1,0
356,92,27210,5,8
296,160,27421,2,0,B|408:224|448:88,1,180,8|8
276,40,28266,2,0,B|188:32|188:189|36:128,1,270,8|8
44,132,29111,5,8
84,212,29323,1,8
76,300,29534,2,0,B|164:292|188:204|152:144,1,180,0|8
208,88,30168,1,0
288,48,30379,1,0
368,88,30590,1,8
288,132,30801,1,8
208,88,31013,1,0
152,160,31224,6,0,B|108:124|64:152,1,90,8|0
96,236,31647,2,0,B|96:300|160:356|216:348,1,180,8|0
188,264,32280,2,0,B|184:216|236:184,1,90,8|8
228,188,32703,1,8
284,256,32914,1,8
360,308,33125,1,0
396,280,33231,1,0
408,236,33337,1,12
256,68,33759,5,0
256,112,34182,1,0
92,192,34604,5,2
188,344,35027,1,8
260,292,35238,1,0
236,252,35344,1,0
248,208,35449,2,0,B|316:192|332:300|424:288,1,180,2|0
448,212,36083,1,0
504,140,36294,2,0,B|404:84|352:188,1,180,2|8
276,224,36928,6,0,B|288:280|372:292,1,90,0|2
336,284,37562,2,0,B|357:206|469:166,2,180,8|2|8
256,316,38618,1,0
212,324,38724,1,0
172,304,38830,2,0,B|120:296|104:260|104:260|110:198|63:176,1,180,2|0
144,128,39463,1,0
96,52,39675,2,0,B|168:20|240:64|240:128,1,180,2|0
308,56,40309,5,0
380,108,40520,2,0,B|417:85|465:109,2,90,2|8|8
328,192,41154,1,0
304,228,41259,1,0
260,236,41365,2,0,B|152:220|100:340,1,180,2|8
212,316,41999,5,0
296,352,42210,1,2
360,288,42421,1,0
316,212,42632,1,8
228,224,42844,1,0
188,204,42949,1,0
192,160,43055,2,0,B|240:72|384:108,1,180,0|8
288,180,43689,5,0
304,268,43900,2,0,B|349:263|380:224,1,90,2|0
380,136,44323,2,0,B|435:143|456:200,1,90,8|0
460,228,44640,1,0
448,272,44745,1,2
340,348,45062,1,0
240,260,45379,2,0,B|200:300|160:308|160:308|120:300|72:244,2,180
172,88,46647,5,0
236,152,46858,1,8
324,148,47069,1,0
364,168,47175,1,0
372,212,47280,1,2
312,280,47492,1,8
228,316,47703,2,0,B|173:339|144:308,1,90,8|0
80,380,48125,2,0,B|32:284|104:204,1,180,2|0
68,128,48759,5,0
96,92,48865,1,0
136,76,48971,1,2
160,164,49182,1,0
248,184,49393,2,0,B|240:232|189:250,1,90,8|0
104,268,49816,2,0,B|120:356|224:324|240:388,1,180,2|8
300,312,50449,5,0
216,280,50661,1,2
276,212,50872,1,0
360,184,51083,2,0,B|384:228|360:274,1,90,10|0
352,312,51400,1,0
308,324,51506,2,0,B|238:426|164:330,1,180,2|10
240,280,52140,5,0
204,256,52245,1,0
204,212,52351,2,0,B|260:188|299:229|299:229|331:189|365:182,1,180,2|8
444,148,52985,2,0,B|404:92|364:92,1,90
360,184,53407,1,0
384,224,53513,1,0
384,268,53618,2,0,B|336:288|294:268,1,90,2|0
232,332,54041,1,0
160,276,54252,1,8
144,364,54463,5,8
76,304,54675,1,0
96,216,54886,1,0
176,176,55097,1,0
212,200,55203,1,0
256,188,55309,1,0
256,188,55520,1,0
488,192,55942,5,0
256,24,56365,1,0
20,192,56787,1,0
256,364,57210,1,0
256,192,57632,1,2
256,192,57844,1,0
