osu file format v9

[General]
AudioFilename: 9C1567DCd01.mp3
AudioLeadIn: 1000
PreviewTime: 33717
Countdown: 0
SampleSet: Soft
StackLeniency: 0.7
Mode: 0
LetterboxInBreaks: 1

[Editor]
DistanceSpacing: 1.1
BeatDivisor: 4
GridSize: 4

[Metadata]
Title:Soufuu (TV Size)
Artist:Tomofumi Tanizawa
Creator:nante
Version:Hard
Source:Kimi ni Todoke 2nd Season
Tags:second opening op kuronuma sawako [shalon]

[Difficulty]
HPDrainRate:5
CircleSize:4
OverallDifficulty:7
ApproachRate:6
SliderMultiplier:1.5
SliderTickRate:1

[Events]
//Background and Video events
0,0,"Background.png"
Video,-185,"vid.flv"
//Break Periods
//Storyboard Layer 0 (Background)
//Storyboard Layer 1 (Fail)
//Storyboard Layer 2 (Pass)
//Storyboard Layer 3 (Foreground)
//Storyboard Sound Samples
//Background Colour Transformations
3,100,163,162,255

[TimingPoints]
802,422.535211267606,4,2,2,50,1,0
14323,-100,4,2,1,50,0,0
34182,-100,4,2,1,30,0,0
34604,-100,4,2,1,60,0,1
57844,-100,4,2,1,44,0,0

[Colours]
Combo1 : 255,240,255
Combo2 : 166,28,28
Combo3 : 95,65,86
Combo4 : 242,220,168

[HitObjects]
256,32,1647,1,2
256,352,2492,1,2
432,72,3337,6,0,B|484:156|404:228,1,150
372,144,3971,1,0
292,132,4182,1,0
236,192,4393,1,0
484,196,5027,5,2
28,188,5872,1,2
416,52,6928,5,0
420,136,7140,1,0
352,180,7351,1,0
204,100,7773,1,0
148,36,7985,1,0
92,96,8196,1,0
32,36,8407,5,2
480,352,9252,1,2
128,136,10309,6,0,B|196:168|196:168|212:132|276:124,1,150
264,208,10942,2,0,B|360:176|328:88,1,150
464,192,11787,5,2
48,192,12632,1,2
256,32,14323,5,8
260,196,14745,2,0,B|252:288|140:288,2,150,8|0|8
176,196,15801,1,8
192,116,16013,2,0,B|104:100|78:203,1,150,0|8
320,256,17069,5,0
388,208,17280,2,0,B|320:151|245:203,2,150,8|0|8
168,340,18759,5,8
168,340,18971,2,0,B|84:332|160:252|48:236,1,150,8|0
84,160,19604,1,0
28,100,19816,1,8
108,84,20027,1,0
272,80,20449,5,8
244,156,20661,1,8
408,152,21083,2,0,B|391:240|318:262,2,150,0|8|0
332,120,22140,1,0
280,184,22351,2,0,B|276:236|200:288|136:244|120:176,1,225,8|0
204,168,23196,1,8
448,128,23830,5,8
392,188,24041,1,8
340,127,24252,1,0
280,184,24463,2,0,B|256:268|144:276,2,150,8|8|0
116,184,25731,1,8
252,88,26154,2,0,B|331:89|368:169,1,150,0|8
440,320,26999,2,0,B|364:374|300:318,1,150,0|8
188,200,27844,6,0,B|252:268|324:212|324:212|388:272|452:192,1,300
380,152,28900,1,0
456,116,29111,2,0,B|424:32|320:60,1,150,8|0
168,56,29956,2,0,B|77:52|45:136,1,150,8|0
104,188,30590,5,0
56,256,30801,2,0,B|116:316|192:272,1,150,8|0
348,212,31647,2,0,B|336:124|224:108,3,150,8|0|8|0
260,196,33125,1,8
240,276,33337,2,0,B|192:292|120:244|120:176,1,150,12|0
256,104,34182,1,0
256,104,34604,5,2
396,196,35027,2,0,B|403:231|443:243|443:243|483:239|503:195,1,150,8|0
396,68,35872,2,0,B|322:5|237:62,1,150,8|0
100,240,36928,5,0
156,300,37140,1,2
296,224,37562,2,0,B|384:184|336:72,1,150,0|2
504,152,38407,1,8
432,304,38830,2,0,B|352:327|287:288,1,150
128,336,39675,1,2
44,184,40097,6,0,B|-12:256|64:352,1,150,0|2
96,256,40731,1,8
136,184,40942,2,0,B|175:235|209:189|267:254,1,150,8|2
428,284,41787,1,8
432,120,42210,5,0
352,144,42421,1,0
272,136,42632,2,0,B|272:72|336:56|360:16,1,150,8|0
192,32,43478,6,0,B|136:96|192:182,1,150,8|2
260,204,44111,1,0
336,168,44323,2,0,B|400:240|336:318,1,150,8|2
192,244,45168,2,0,B|120:300|40:232,1,150,8|0
148,108,46013,2,0,B|220:60|298:116,1,150,8|0
344,264,46858,2,0,B|440:296|488:208,1,150,8|2
400,192,47492,6,8,B|408:136|344:112,1,75
300,164,47914,1,0
224,200,48125,2,0,B|128:208|128:328,1,150,2|8
296,304,48971,1,0
296,304,49393,2,0,B|352:312|320:219|405:212,2,150,8|2|8
216,284,50449,1,0
136,272,50661,2,0,B|88:344|0:336,2,150,2|8|2
240,144,51928,6,0,B|328:168|392:80,2,150,8|0|8
264,64,52985,1,0
184,88,53196,2,0,B|108:104|67:176,2,150,0|10|0
244,144,54252,2,8,B|292:160|323:123,1,75
380,184,54675,1,0
448,232,54886,6,0,B|396:312|292:248,1,150,0|8
264,104,55731,2,0,B|176:128|188:233,2,150,0|8|0
252,268,56999,2,0,B|180:332|100:252,1,150,0|0
188,216,57632,1,2
188,132,57844,1,0
