osu file format v12

[General]
AudioFilename: Soufuu.mp3
AudioLeadIn: 2000
PreviewTime: 33655
Countdown: 0
SampleSet: Soft
StackLeniency: 0.7
Mode: 0
LetterboxInBreaks: 0

[Editor]
DistanceSpacing: 1
BeatDivisor: 4
GridSize: 4

[Metadata]
Title:Sawakaze (TV Size)
TitleUnicode:爽風 (TV Size)
Artist:Tomofumi Tanizawa
ArtistUnicode:タニザワトモフミ
Creator:mintong89
Version:Normal
Source:Kimi ni Todoke 2nd Season
Tags:OP Opening kuronuma sawako kazehaya shouta wind soufuu K_i_A_i 智文谷澤
BeatmapID:259278
BeatmapSetID:96807

[Difficulty]
HPDrainRate:4
CircleSize:3
OverallDifficulty:4
ApproachRate:6
SliderMultiplier:1.2
SliderTickRate:1

[Events]
//Background and Video events
0,0,"sawakaze.jpg",0,0
Video,0,"vid.flv"
//Break Periods
//Storyboard Layer 0 (Background)
//Storyboard Layer 1 (Fail)
//Storyboard Layer 2 (Pass)
//Storyboard Layer 3 (Foreground)
//Storyboard Sound Samples
//Background Colour Transformations
3,100,163,162,255

[TimingPoints]
803,422.535211267606,4,2,2,40,1,0
1648,-200,4,2,2,40,0,0
13901,-100,4,2,1,60,0,0
33760,-133.333333333333,4,2,1,10,0,0
34605,-100,4,2,1,80,0,1
58267,-100,4,2,1,10,0,0

[Colours]
Combo1 : 68,136,121
Combo2 : 245,160,252
Combo3 : 249,111,111
Combo4 : 164,179,128

[HitObjects]
68,192,1648,2,0,P|144:208|192:192,1,120
256,100,3338,1,0,0:0:0:0:
376,116,4183,1,0,0:0:0:0:
456,204,5028,2,0,P|476:248|464:324,1,120
316,328,6929,6,0,L|252:312,1,60
204,288,7774,2,0,L|212:228,1,60
232,172,8619,2,0,L|220:104,1,60
216,84,9253,2,0,P|172:96|100:56,1,120
92,40,10310,1,0,0:0:0:0:
68,128,10943,6,0,L|52:188,1,60
36,244,11788,1,0,0:0:0:0:
100,348,12633,1,0,0:0:0:0:
460,56,14324,6,0,P|388:88|332:72,1,120,6|8,0:0|0:0,0:0:0:0:
232,48,15169,1,2,0:0:0:0:
176,68,15380,1,2,3:0:0:0:
116,64,15591,2,0,L|36:76,1,60,8|0,0:0|0:0,0:0:0:0:
8,108,16014,6,0,P|36:164|16:244,1,120,2|8,0:0|0:0,0:0:0:0:
132,284,16859,2,0,P|156:220|140:148,1,120,2|8,0:0|0:0,0:0:0:0:
212,68,17704,6,0,P|272:84|344:68,1,120,2|8,0:0|0:0,0:0:0:0:
444,44,18549,2,0,L|464:108,1,60,2|2,0:0|3:0,0:0:0:0:
444,160,18972,2,0,L|436:224,1,60,8|2,0:0|0:0,0:0:0:0:
408,272,19394,6,0,P|356:292|276:264,1,120,2|8,0:0|0:0,0:0:0:0:
220,184,20239,1,2,0:0:0:0:
168,152,20450,1,2,0:0:0:0:
108,148,20662,2,0,L|44:144,1,60,8|0,0:0|0:0,0:0:0:0:
12,192,21084,6,0,P|0:256|36:312,1,120,2|8,0:0|0:0,0:0:0:0:
128,360,21929,2,0,L|148:288,1,60,2|2,0:0|3:0,0:0:0:0:
184,256,22352,2,0,L|168:184,1,60,8|0,0:0|0:0,0:0:0:0:
148,140,22774,6,0,P|164:104|236:64,1,120,2|8,0:0|0:0,0:0:0:0:
332,132,23619,2,0,P|288:164|268:224,1,120,2|8,0:0|0:0,0:0:0:0:
324,332,24464,6,0,P|276:348|204:336,1,120,2|8,0:0|0:0,0:0:0:0:
116,260,25310,2,0,P|176:244|224:196,1,120,2|8,0:0|0:0,0:0:0:0:
268,96,26155,1,2,0:0:0:0:
268,96,26577,6,0,L|196:84,1,60,8|0,0:0|0:0,0:0:0:0:
148,96,27000,2,0,L|80:116,1,60,2|2,0:0|0:0,0:0:0:0:
48,156,27422,2,0,L|44:224,1,60,8|0,0:0|0:0,0:0:0:0:
256,192,27845,12,8,29957,0:0:0:0:
188,128,30380,6,0,P|224:104|304:100,1,120,2|8,0:0|0:0,0:0:0:0:
316,216,31225,2,0,P|312:260|356:332,1,120,2|8,0:0|0:0,0:0:0:0:
444,252,32070,2,0,P|468:212|472:132,1,120,2|8,0:0|0:0,0:0:0:0:
416,36,32915,1,4,0:0:0:0:
416,36,33338,1,4,0:0:0:0:
416,36,33760,6,0,P|364:52|320:48,1,90.0000034332277
208,36,34605,6,0,P|212:88|176:148,1,120,6|8,1:2|1:0,0:0:0:0:
132,180,35239,1,0,0:0:0:0:
72,184,35450,2,0,L|8:172,1,60,2|2,1:0|0:0,0:0:0:0:
36,228,35873,2,0,L|176:248,1,120,8|2,1:0|1:0,0:0:0:0:
276,260,36718,5,8,1:0:0:0:
364,180,37141,2,0,L|372:104,1,60,2|2,1:0|3:0,0:0:0:0:
380,60,37563,2,0,P|420:56|492:96,1,120,8|0,1:0|1:0,0:0:0:0:
504,212,38408,1,8,1:0:0:0:
436,312,38831,2,0,L|352:324,1,60,2|2,1:0|0:0,0:0:0:0:
316,316,39253,2,0,L|252:308,1,60,8|0,1:0|0:0,0:0:0:0:
200,292,39676,6,0,P|172:224|192:160,1,120,2|8,1:0|1:0,0:0:0:0:
300,196,40521,2,0,L|364:208,2,60,2|4|4,1:0|0:0|1:2,0:0:0:0:
228,100,41366,6,0,P|180:80|104:84,1,120,2|8,1:0|1:0,0:0:0:0:
12,148,42211,2,0,L|40:212,1,60,2|2,1:0|0:0,0:0:0:0:
76,248,42633,2,0,L|136:276,1,60,8|0,1:0|0:0,0:0:0:0:
188,296,43056,6,0,P|220:300|324:280,1,120,2|8,1:0|1:0,0:0:0:0:
416,244,43901,2,0,L|424:176,1,60,2|2,1:0|3:0,0:0:0:0:
392,132,44324,2,0,L|384:64,1,60,8|2,1:0|3:0,0:0:0:0:
340,36,44746,6,0,P|280:48|216:28,1,120,2|8,1:0|1:0,0:0:0:0:
108,68,45591,2,0,P|96:112|120:204,1,120,2|8,1:0|1:0,0:0:0:0:
148,232,46225,5,2,1:0:0:0:
260,276,46648,1,2,1:0:0:0:
360,208,47070,1,2,1:0:0:0:
380,152,47281,2,0,L|364:68,2,60,2|4|4,1:0|0:0|1:2,0:0:0:0:
268,196,48126,6,0,P|212:208|128:180,1,120,6|8,1:2|1:0,0:0:0:0:
96,168,48760,1,0,0:0:0:0:
44,136,48972,2,0,P|44:92|100:32,1,120,2|8,1:0|1:0,0:0:0:0:
196,92,49817,6,0,P|268:104|316:72,1,120,2|8,1:0|1:0,0:0:0:0:
424,60,50662,2,0,L|496:56,2,60,2|2|8,1:0|3:0|1:0,0:0:0:0:
372,88,51295,1,2,3:0:0:0:
320,116,51507,6,0,P|252:128|188:96,1,120,2|8,1:0|1:0,0:0:0:0:
92,144,52352,2,0,P|64:184|76:260,1,120,2|8,1:0|1:0,0:0:0:0:
256,192,53197,12,4,54464,0:0:0:0:
328,200,54887,6,0,P|276:208|192:176,1,120,6|8,1:2|1:0,0:0:0:0:
168,76,55732,2,0,P|92:116|48:112,1,120,2|8,1:0|1:0,0:0:0:0:
40,232,56577,2,0,L|48:300,2,60,2|0|8,1:0|0:0|1:0,0:0:0:0:
72,180,57211,2,0,P|124:160|208:176,1,120,2|0,0:0|0:0,0:0:0:0:
240,192,57845,2,0,P|264:144|248:56,1,120,8|0,1:0|0:0,0:0:0:0:
