osu file format v12

[General]
AudioFilename: Soufuu.mp3
AudioLeadIn: 2000
PreviewTime: 33655
Countdown: 0
SampleSet: Soft
StackLeniency: 0.7
Mode: 0
LetterboxInBreaks: 0

[Editor]
DistanceSpacing: 0.8
BeatDivisor: 4
GridSize: 4

[Metadata]
Title:Sawakaze (TV Size)
TitleUnicode:爽風 (TV Size)
Artist:Tomofumi Tanizawa
ArtistUnicode:タニザワトモフミ
Creator:mintong89
Version:Hard
Source:Kimi ni Todoke 2nd Season
Tags:OP Opening kuronuma sawako kazehaya shouta wind soufuu K_i_A_i 智文谷澤
BeatmapID:259277
BeatmapSetID:96807

[Difficulty]
HPDrainRate:5
CircleSize:4
OverallDifficulty:6
ApproachRate:7
SliderMultiplier:1.7
SliderTickRate:1

[Events]
//Background and Video events
0,0,"sawakaze.jpg",0,0
Video,0,"vid.flv"
//Break Periods
//Storyboard Layer 0 (Background)
//Storyboard Layer 1 (Fail)
//Storyboard Layer 2 (Pass)
//Storyboard Layer 3 (Foreground)
//Storyboard Sound Samples
//Background Colour Transformations
3,100,163,162,255

[TimingPoints]
803,422.535211267606,4,2,2,30,1,0
1648,-200,4,2,2,40,0,0
13901,-100,4,2,1,60,0,0
33760,-133.333333333333,4,2,1,10,0,0
34605,-100,4,2,1,80,0,1
57845,-66.6666666666667,4,2,1,80,0,1
58267,-100,4,2,1,10,0,0

[Colours]
Combo1 : 68,136,121
Combo2 : 245,160,252
Combo3 : 249,111,111
Combo4 : 164,179,128

[HitObjects]
128,48,591,1,0,0:0:0:0:
44,116,803,1,0,0:0:0:0:
84,216,1014,1,0,0:0:0:0:
192,212,1225,1,0,0:0:0:0:
220,108,1648,6,0,P|264:120|384:76,1,170,0|0,0:0|0:0,0:0:0:0:
378,81,3338,5,0,0:0:0:0:
444,176,3760,2,0,L|440:232,1,42.5
360,312,4183,2,0,L|364:268,1,42.5
296,204,5028,6,0,P|272:228|144:228,1,170
64,104,6929,6,0,L|56:52,2,42.5
164,180,7774,2,0,L|156:232,2,42.5
256,96,8619,2,0,L|276:56,2,42.5
280,184,9253,2,0,P|304:212|444:240,1,170
427,244,10310,6,0,P|404:272|380:328,1,85
280,248,10943,2,0,P|280:212|264:156,1,85
216,56,11788,1,0,0:0:0:0:
44,100,12633,1,0,0:0:0:0:
44,100,14112,6,0,L|60:184,2,85,0|6|0,0:0|0:0|0:0,0:0:0:0:
136,228,14746,1,8,0:0:0:0:
136,228,15169,2,0,P|164:252|220:252,1,85,2|2,0:0|3:0,0:0:0:0:
400,232,15591,2,0,P|372:208|316:208,1,85,10|0,0:0|3:0,0:0:0:0:
248,184,16014,6,0,P|236:132|296:36,1,170,2|8,0:0|0:0,0:0:0:0:
372,140,16648,2,0,P|428:132|472:152,1,85,0|2,0:0|0:0,0:0:0:0:
452,268,17070,1,2,0:0:0:0:
364,348,17281,1,8,0:0:0:0:
364,348,17704,6,0,P|324:328|268:324,1,85,2|0,0:0|0:0,0:0:0:0:
220,224,18126,2,0,P|180:264|132:268,1,85,8|0,0:0|0:0,0:0:0:0:
36,268,18549,1,2,0:0:0:0:
32,220,18655,1,0,0:0:0:0:
12,176,18760,1,2,3:0:0:0:
76,76,18972,2,0,P|116:88|156:76,1,85,8|0,0:0|0:0,0:0:0:0:
268,32,19394,6,0,P|252:76|284:156,1,127.5,2|0,0:0|0:0,0:0:0:0:
320,192,19817,2,0,P|372:196|424:176,1,85,8|0,0:0|0:0,0:0:0:0:
488,104,20239,1,2,0:0:0:0:
492,224,20450,1,2,0:0:0:0:
384,276,20662,1,8,0:0:0:0:
384,276,21084,6,0,P|328:272|268:292,1,85,2|0,0:0|0:0,0:0:0:0:
200,340,21507,2,0,P|172:304|168:240,1,85,8|0,0:0|0:0,0:0:0:0:
176,148,21929,1,2,0:0:0:0:
56,160,22141,1,2,3:0:0:0:
108,52,22352,2,0,P|156:48|228:72,1,85,8|0,0:0|0:0,0:0:0:0:
296,112,22774,6,0,P|336:128|408:120,1,85,2|0,0:0|0:0,0:0:0:0:
480,68,23197,2,0,L|472:152,1,85,8|0,0:0|0:0,0:0:0:0:
448,268,23619,1,2,0:0:0:0:
352,340,23831,1,2,0:0:0:0:
236,320,24042,1,8,0:0:0:0:
236,320,24464,6,0,P|204:288|192:216,1,85,2|0,0:0|0:0,0:0:0:0:
228,140,24887,2,0,P|176:156|132:148,1,85,8|0,0:0|0:0,0:0:0:0:
32,116,25310,1,2,0:0:0:0:
32,116,25521,1,2,3:0:0:0:
132,48,25732,2,0,P|184:32|228:40,1,85,8|0,0:0|0:0,0:0:0:0:
324,80,26155,6,0,P|364:112|464:112,1,127.5,2|0,0:0|0:0,0:0:0:0:
484,108,26577,2,0,P|508:156|504:216,1,85,8|0,0:0|0:0,0:0:0:0:
488,304,27000,1,2,0:0:0:0:
372,328,27211,1,2,0:0:0:0:
280,252,27422,1,8,0:0:0:0:
312,136,27633,1,0,0:0:0:0:
216,64,27845,1,12,0:0:0:0:
256,192,27950,12,8,29957,0:0:0:0:
216,152,30169,5,2,0:0:0:0:
284,248,30380,2,0,P|340:280|384:280,1,85,2|2,0:0|0:0,0:0:0:0:
432,188,30803,2,0,P|440:140|428:100,1,85,8|0,0:0|0:0,0:0:0:0:
336,36,31225,5,0,0:0:0:0:
108,104,31648,1,8,0:0:0:0:
168,336,32070,1,0,0:0:0:0:
272,300,32281,1,2,0:0:0:0:
256,192,32493,1,8,0:0:0:0:
256,192,32915,6,0,L|344:192,2,85,4|0|4,0:0|0:0|0:0,0:0:0:0:
256,192,33760,2,0,P|208:212|128:188,1,127.500004863739
137,195,34605,6,0,P|105:213|33:197,1,85,6|0,0:0|0:0,0:0:0:0:
104,72,35028,2,0,P|152:96|188:92,1,85,8|0,1:0|0:0,0:0:0:0:
220,80,35345,1,0,0:0:0:0:
260,68,35450,2,0,L|368:60,1,85,2|2,1:0|0:0,0:0:0:0:
480,160,35873,2,0,L|376:140,1,85,8|2,1:0|0:0,0:0:0:0:
272,172,36295,6,0,P|280:244|364:328,1,170,2|8,1:0|1:0,0:0:0:0:
432,360,36929,1,0,0:0:0:0:
456,180,37141,2,0,P|408:208|344:208,1,85,2|2,1:0|3:0,0:0:0:0:
280,120,37563,2,0,P|268:172|220:212,1,85,10|2,1:0|3:0,0:0:0:0:
136,240,37986,5,2,1:0:0:0:
32,184,38197,1,0,0:0:0:0:
44,64,38408,2,0,P|100:48|148:44,1,85,8|0,1:0|0:0,0:0:0:0:
248,40,38831,1,2,1:0:0:0:
176,132,39042,1,2,0:0:0:0:
268,204,39253,2,0,P|320:196|368:168,1,85,8|2,1:0|0:0,0:0:0:0:
428,76,39676,6,0,P|467:133|475:189,1,127.5,2|0,1:0|0:0,0:0:0:0:
500,236,40098,2,0,P|480:284|481:320,1,85,8|0,1:0|0:0,0:0:0:0:
480,317,40521,1,2,1:0:0:0:
364,344,40732,1,6,0:0:0:0:
256,292,40943,1,6,1:2:0:0:
256,292,41366,6,0,P|216:264|176:200,1,85,2|0,1:0|0:0,0:0:0:0:
216,120,41788,2,0,P|160:132|108:116,1,85,8|2,1:0|0:0,0:0:0:0:
100,108,42105,1,2,0:0:0:0:
72,80,42211,2,0,P|64:140|24:172,1,85,2|2,1:0|0:0,0:0:0:0:
52,276,42633,2,0,P|108:256|156:268,1,85,8|2,1:0|0:0,0:0:0:0:
244,304,43056,6,0,P|276:244|272:196,1,85,2|0,1:0|0:0,0:0:0:0:
208,132,43479,2,0,P|160:144|120:184,1,85,8|0,1:0|0:0,0:0:0:0:
128,284,43901,1,2,1:0:0:0:
36,212,44112,1,2,3:0:0:0:
76,100,44324,1,8,1:0:0:0:
192,80,44535,1,2,3:0:0:0:
272,168,44746,6,0,P|312:192|400:196,1,127.5,2|0,1:0|0:0,0:0:0:0:
444,168,45169,2,0,P|484:200|496:232,1,85,8|0,1:0|0:0,0:0:0:0:
424,324,45591,2,0,P|384:336|328:316,1,85,2|2,1:0|0:0,0:0:0:0:
284,220,46014,2,0,P|228:236|196:264,1,85,8|0,1:0|0:0,0:0:0:0:
152,348,46436,6,0,P|96:320|72:208,1,170,2|8,1:0|1:0,0:0:0:0:
84,104,47070,1,0,0:0:0:0:
200,124,47281,1,2,1:0:0:0:
284,40,47493,1,4,0:0:0:0:
400,60,47704,1,4,1:2:0:0:
400,60,48126,6,0,P|392:120|440:208,1,127.5,6|0,1:2|0:0,0:0:0:0:
452,228,48549,2,0,P|452:276|412:320,1,85,8|0,1:0|0:0,0:0:0:0:
320,348,48972,2,0,L|284:268,1,85,2|2,1:0|0:0,0:0:0:0:
208,180,49394,2,0,L|156:252,1,85,8|0,1:0|0:0,0:0:0:0:
80,340,49817,5,2,1:0:0:0:
48,224,50028,1,0,0:0:0:0:
136,144,50239,2,0,P|180:120|200:84,1,85,8|0,1:0|0:0,0:0:0:0:
300,28,50662,2,0,P|324:72|372:88,1,85,2|2,1:0|3:0,0:0:0:0:
472,88,51084,2,0,L|468:180,1,85,8|2,1:0|3:0,0:0:0:0:
428,284,51507,6,0,L|352:220,1,85,2|0,1:0|0:0,0:0:0:0:
272,152,51929,2,0,P|224:176|168:168,1,85,8|2,1:0|0:0,0:0:0:0:
148,172,52246,1,2,0:0:0:0:
104,160,52352,2,0,L|20:140,1,85,2|0,1:0|0:0,0:0:0:0:
120,272,52774,2,0,L|208:260,1,85,8|0,1:0|0:0,0:0:0:0:
256,192,53197,12,4,54253,0:0:0:0:
256,192,54464,5,4,0:0:0:0:
156,128,54676,1,0,0:0:0:0:
60,200,54887,6,0,P|48:268|76:336,1,127.5,4|0,1:2|0:0,0:0:0:0:
104,344,55310,2,0,L|188:336,1,85,8|0,1:0|0:0,0:0:0:0:
376,304,55732,2,0,L|292:296,1,85,2|2,1:0|0:0,0:0:0:0:
192,232,56155,2,0,P|176:160|192:116,1,85,8|0,1:0|0:0,0:0:0:0:
216,36,56577,6,0,P|272:72|324:76,1,85,2|0,1:0|0:0,0:0:0:0:
424,120,57000,2,0,P|392:152|328:168,1,85,8|0,1:0|0:0,0:0:0:0:
248,212,57422,1,2,1:0:0:0:
136,128,57633,5,0,0:0:0:0:
136,128,57845,2,0,B|76:80|28:128|76:176|132:232|76:288|20:240,1,255.000009727478,8|0,1:0|0:0,0:0:0:0:
