osu file format v12

[General]
AudioFilename: Soufuu.mp3
AudioLeadIn: 2000
PreviewTime: 33655
Countdown: 0
SampleSet: Soft
StackLeniency: 0.7
Mode: 0
LetterboxInBreaks: 0

[Editor]
DistanceSpacing: 1
BeatDivisor: 4
GridSize: 4

[Metadata]
Title:Sawakaze (TV Size)
TitleUnicode:爽風 (TV Size)
Artist:Tomofumi Tanizawa
ArtistUnicode:タニザワトモフミ
Creator:mintong89
Version:Easy
Source:Kimi ni Todoke 2nd Season
Tags:OP Opening kuronuma sawako kazehaya shouta wind soufuu K_i_A_i 智文谷澤
BeatmapID:259796
BeatmapSetID:96807

[Difficulty]
HPDrainRate:3
CircleSize:3
OverallDifficulty:3
ApproachRate:4
SliderMultiplier:0.9
SliderTickRate:1

[Events]
//Background and Video events
0,0,"sawakaze.jpg",0,0
Video,0,"vid.flv"
//Break Periods
//Storyboard Layer 0 (Background)
//Storyboard Layer 1 (Fail)
//Storyboard Layer 2 (Pass)
//Storyboard Layer 3 (Foreground)
//Storyboard Sound Samples
//Background Colour Transformations
3,100,163,162,255

[TimingPoints]
803,422.535211267606,4,2,2,40,1,0
13901,-100,4,2,1,60,0,0
33760,-100,4,2,1,10,0,0
34605,-100,4,2,1,80,0,1
58267,-100,4,2,1,10,0,0

[Colours]
Combo1 : 68,136,121
Combo2 : 245,160,252
Combo3 : 249,111,111
Combo4 : 164,179,128

[HitObjects]
152,80,1648,1,0,0:0:0:0:
92,248,2493,1,0,0:0:0:0:
264,196,3338,2,0,P|308:204|368:188,2,90
152,56,5028,1,0,0:0:0:0:
332,80,5873,1,0,0:0:0:0:
256,296,7563,5,0,0:0:0:0:
76,312,8408,1,0,0:0:0:0:
12,144,9253,1,0,0:0:0:0:
360,52,10943,6,0,L|344:144,1,90
308,224,11788,2,0,P|224:240|176:216,1,135
160,52,14324,5,6,0:0:0:0:
220,116,14746,2,0,P|232:140|224:212,1,90,8|2,0:0|0:0,0:0:0:0:
188,280,15591,1,8,0:0:0:0:
108,324,16014,6,0,P|72:324|24:288,1,90,2|8,0:0|0:0,0:0:0:0:
72,216,16859,1,2,0:0:0:0:
44,132,17281,1,8,0:0:0:0:
100,60,17704,5,2,0:0:0:0:
188,84,18126,2,8,P|232:104|356:60,1,180
440,44,19394,2,0,P|448:96|472:124,1,90,2|8,0:0|0:0,0:0:0:0:
504,208,20239,1,2,0:0:0:0:
448,276,20662,1,8,0:0:0:0:
360,276,21084,5,2,0:0:0:0:
304,204,21507,2,8,P|272:168|132:160,1,180
68,192,22774,2,0,L|60:288,2,90,2|8|2,0:0|0:0|0:0,0:0:0:0:
128,124,24042,1,8,0:0:0:0:
216,112,24464,6,0,P|260:120|312:108,1,90,2|8,0:0|0:0,0:0:0:0:
376,168,25310,2,0,P|352:196|340:264,1,90,2|8,0:0|0:0,0:0:0:0:
348,336,26155,1,2,0:0:0:0:
168,324,27000,2,0,L|76:316,1,90,2|8,0:0|0:0,0:0:0:0:
256,192,27845,12,8,29957,0:0:0:0:
352,100,30803,5,8,0:0:0:0:
272,140,31225,2,0,P|256:200|272:240,1,90,6|8,0:0|0:0,0:0:0:0:
336,280,32070,2,0,P|352:236|336:176,1,90,2|8,0:0|0:0,0:0:0:0:
272,140,32915,1,4,0:0:0:0:
188,104,33338,1,4,0:0:0:0:
132,172,33760,6,0,P|88:192|32:188,1,90
12,276,34605,5,4,1:0:0:0:
100,292,35028,2,8,P|152:296|248:208,1,180,8|8,1:0|1:0,0:0:0:0:
336,208,36295,2,0,L|304:124,1,90,2|8,1:0|1:0,0:0:0:0:
248,52,37141,2,0,L|168:108,1,90,2|8,1:0|1:0,0:0:0:0:
112,168,37986,5,2,1:0:0:0:
24,144,38408,2,8,P|24:192|136:260,1,180,8|8,1:0|1:0,0:0:0:0:
212,244,39676,1,2,1:0:0:0:
284,192,40098,1,8,1:0:0:0:
372,180,40521,2,0,L|420:208,2,45,2|4|4,1:0|0:0|1:2,0:0:0:0:
324,104,41366,6,0,P|316:80|324:16,1,90,0|8,1:2|1:0,0:0:0:0:
404,60,42211,2,0,P|428:84|444:156,1,90,2|8,1:0|1:0,0:0:0:0:
444,228,43056,2,0,P|404:236|348:212,1,90,2|8,1:0|1:0,0:0:0:0:
304,148,43901,2,0,P|264:140|212:156,1,90,2|8,1:0|1:0,0:0:0:0:
256,192,44746,12,0,46225,0:0:0:0:
100,80,47281,6,0,L|44:64,2,45,0|4|4,1:0|0:0|1:2,0:0:0:0:
180,116,48126,5,4,1:0:0:0:
252,172,48549,2,8,P|272:216|208:328,1,180,8|8,1:0|1:0,0:0:0:0:
128,340,49817,6,0,L|44:288,1,90,2|8,1:0|1:0,0:0:0:0:
8,212,50662,2,0,L|116:200,1,90,2|8,1:0|1:0,0:0:0:0:
188,192,51507,5,2,1:0:0:0:
264,144,51929,2,8,P|308:152|440:96,1,180,8|8,1:0|1:0,0:0:0:0:
256,192,53197,12,4,54464,0:0:0:0:
212,144,54887,6,0,L|120:176,1,90,4|8,1:2|1:0,0:0:0:0:
116,84,55732,2,0,L|200:52,1,90,2|8,1:0|1:0,0:0:0:0:
288,28,56577,5,2,1:0:0:0:
356,84,57000,1,8,1:0:0:0:
444,64,57422,1,2,1:0:0:0:
492,140,57845,2,0,L|480:248,1,90,8|0,1:0|0:0,0:0:0:0:
