osu file format v9

[General]
AudioFilename: Tomofumi Tanizawa - Sawakaze.mp3
AudioLeadIn: 496
PreviewTime: 104762
Countdown: 0
SampleSet: Normal
StackLeniency: 0.7
Mode: 0
LetterboxInBreaks: 0

[Editor]
Bookmarks: 179991
DistanceSpacing: 1.7
BeatDivisor: 4
GridSize: 8

[Metadata]
Title:Sawakaze
Artist:Tomofumi Tanizawa
Creator:Colin Hou
Version:Hard
Source:Kimi ni Todoke 2ND SEASON
Tags:Kuronuma Sawako Kazehaya Shouta Feel So Good Wind Nippon ni Ochite Kita Otoko

[Difficulty]
HPDrainRate:6
CircleSize:4
OverallDifficulty:7
ApproachRate:7
SliderMultiplier:1.8
SliderTickRate:1

[Events]
//Background and Video events
Video,0,"BGV.avi"
0,0,"BG.jpg"
//Break Periods
2,58501,70922
//Storyboard Layer 0 (Background)
//Storyboard Layer 1 (Fail)
//Storyboard Layer 2 (Pass)
//Storyboard Layer 3 (Foreground)
//Storyboard Sound Samples
//Background Colour Transformations
3,100,234,232,183

[TimingPoints]
837,422.535211267606,4,1,0,50,1,0
2527,-100,4,1,0,40,0,0
5907,-100,4,1,0,45,0,0
8442,-100,4,1,0,55,0,0
9287,-100,4,1,0,50,0,0
12667,-100,4,1,0,35,0,0
14780,-100,4,1,0,50,0,0
14886,-100,4,1,0,35,0,0
15625,-100,4,1,0,50,0,0
15731,-100,4,1,0,35,0,0
16470,-100,4,1,0,50,0,0
16576,-100,4,1,0,35,0,0
17315,-100,4,1,0,50,0,0
17421,-100,4,1,0,35,0,0
18160,-100,4,1,0,50,0,0
18266,-100,4,1,0,35,0,0
19006,-100,4,1,0,50,0,0
19111,-100,4,1,0,35,0,0
19851,-100,4,1,0,50,0,0
19956,-100,4,1,0,35,0,0
20696,-100,4,1,0,50,0,0
20801,-100,4,1,0,35,0,0
21541,-100,4,1,0,50,0,0
21646,-100,4,1,0,35,0,0
22386,-100,4,1,0,50,0,0
22491,-100,4,1,0,35,0,0
23231,-100,4,1,0,50,0,0
23337,-100,4,1,0,35,0,0
24076,-100,4,1,0,50,0,0
24182,-100,4,1,0,35,0,0
24921,-100,4,1,0,50,0,0
25027,-100,4,1,0,35,0,0
25766,-100,4,1,0,50,0,0
25872,-100,4,1,0,35,0,0
26611,-100,4,1,0,50,0,0
26717,-100,4,1,0,35,0,0
27456,-100,4,1,0,50,0,0
27562,-100,4,1,0,35,0,0
28301,-100,4,1,0,50,0,0
28407,-100,4,1,0,35,0,0
29146,-100,4,1,0,50,0,0
29252,-100,4,1,0,35,0,0
29991,-100,4,1,0,50,0,0
30097,-100,4,1,0,35,0,0
30837,-100,4,1,0,50,0,0
30942,-100,4,1,0,35,0,0
31682,-100,4,1,0,50,0,0
31787,-100,4,1,0,35,0,0
32527,-100,4,1,0,50,0,0
32632,-100,4,1,0,35,0,0
32949,-100,4,1,0,60,0,0
33160,-100,4,1,0,35,0,0
33372,-100,4,1,0,60,0,0
33583,-100,4,1,0,10,0,0
33794,-200,4,1,0,35,0,0
34639,-100,4,1,0,35,0,0
35062,-100,4,1,0,50,0,0
35167,-100,4,1,0,35,0,0
35907,-100,4,1,0,50,0,0
36013,-100,4,1,0,35,0,0
36752,-100,4,1,0,50,0,0
36858,-100,4,1,0,35,0,0
37597,-100,4,1,0,50,0,0
37703,-100,4,1,0,35,0,0
38442,-100,4,1,0,50,0,0
38548,-100,4,1,0,35,0,0
39287,-100,4,1,0,50,0,0
39393,-100,4,1,0,35,0,0
40132,-100,4,1,0,50,0,0
40238,-100,4,1,0,35,0,0
40766,-100,4,1,0,50,0,0
41083,-100,4,1,0,35,0,0
41822,-100,4,1,0,50,0,0
41928,-100,4,1,0,35,0,0
42667,-100,4,1,0,50,0,0
42773,-100,4,1,0,35,0,0
43513,-100,4,1,0,50,0,0
43618,-100,4,1,0,35,0,0
44358,-100,4,1,0,50,0,0
44463,-100,4,1,0,35,0,0
45203,-100,4,1,0,50,0,0
45308,-100,4,1,0,35,0,0
46048,-100,4,1,0,50,0,0
46153,-100,4,1,0,35,0,0
46893,-100,4,1,0,50,0,0
46998,-100,4,1,0,35,0,0
47527,-100,4,1,0,50,0,0
47844,-100,4,1,0,35,0,0
48583,-100,4,1,0,50,0,0
48689,-100,4,1,0,35,0,0
49428,-100,4,1,0,50,0,0
49534,-100,4,1,0,35,0,0
50273,-100,4,1,0,50,0,0
50379,-100,4,1,0,35,0,0
51118,-100,4,1,0,50,0,0
51224,-100,4,1,0,35,0,0
51963,-100,4,1,0,50,0,0
52069,-100,4,1,0,35,0,0
52808,-100,4,1,0,50,0,0
52914,-100,4,1,0,35,0,0
53653,-100,4,1,0,50,0,0
53759,-100,4,1,0,35,0,0
54287,-100,4,1,0,50,0,0
54604,-100,4,1,0,35,0,0
55344,-100,4,1,0,50,0,0
55449,-100,4,1,0,35,0,0
56189,-100,4,1,0,50,0,0
56294,-100,4,1,0,35,0,0
57034,-100,4,1,0,50,0,0
57139,-100,4,1,0,35,0,0
57879,-100,4,1,0,50,0,0
57984,-100,4,1,0,35,0,0
72245,-100,4,1,0,50,0,0
72351,-100,4,1,0,35,0,0
73090,-100,4,1,0,50,0,0
73196,-100,4,1,0,35,0,0
73935,-100,4,1,0,50,0,0
74041,-100,4,1,0,35,0,0
74780,-100,4,1,0,50,0,0
74886,-100,4,1,0,35,0,0
75625,-100,4,1,0,50,0,0
75731,-100,4,1,0,35,0,0
76470,-100,4,1,0,50,0,0
76576,-100,4,1,0,35,0,0
77315,-100,4,1,0,50,0,0
77421,-100,4,1,0,35,0,0
78160,-100,4,1,0,50,0,0
78266,-100,4,1,0,35,0,0
79006,-100,4,1,0,50,0,0
79111,-100,4,1,0,35,0,0
79851,-100,4,1,0,50,0,0
79956,-100,4,1,0,35,0,0
80696,-100,4,1,0,50,0,0
80801,-100,4,1,0,35,0,0
81541,-100,4,1,0,50,0,0
81646,-100,4,1,0,35,0,0
82386,-100,4,1,0,50,0,0
82491,-100,4,1,0,35,0,0
83231,-100,4,1,0,50,0,0
83337,-100,4,1,0,35,0,0
84076,-100,4,1,0,50,0,0
84182,-100,4,1,0,35,0,0
84921,-100,4,1,0,50,0,0
85027,-100,4,1,0,35,0,0
85766,-100,4,1,0,50,0,0
85872,-100,4,1,0,35,0,0
86611,-100,4,1,0,50,0,0
86717,-100,4,1,0,35,0,0
87456,-100,4,1,0,50,0,0
87562,-100,4,1,0,35,0,0
88301,-100,4,1,0,50,0,0
88407,-100,4,1,0,35,0,0
89146,-100,4,1,0,50,0,0
89252,-100,4,1,0,35,0,0
89991,-100,4,1,0,50,0,0
90097,-100,4,1,0,35,0,0
90837,-100,4,1,0,50,0,0
90942,-100,4,1,0,35,0,0
91682,-100,4,1,0,50,0,0
91787,-100,4,1,0,35,0,0
92527,-100,4,1,0,50,0,0
92632,-100,4,1,0,35,0,0
93372,-100,4,1,0,50,0,0
93477,-100,4,1,0,35,0,0
94217,-100,4,1,0,50,0,0
94322,-100,4,1,0,35,0,0
95062,-100,4,1,0,50,0,0
95167,-100,4,1,0,35,0,0
95907,-100,4,1,0,50,0,0
96013,-100,4,1,0,35,0,0
96752,-100,4,1,0,50,0,0
96858,-100,4,1,0,35,0,0
97597,-100,4,1,0,50,0,0
97703,-100,4,1,0,35,0,0
98442,-100,4,1,0,50,0,0
98548,-100,4,1,0,35,0,0
99287,-100,4,1,0,50,0,0
99393,-100,4,1,0,35,0,0
100132,-100,4,1,0,50,0,0
100238,-100,4,1,0,35,0,0
100977,-100,4,1,0,50,0,0
101083,-100,4,1,0,35,0,0
101822,-100,4,1,0,50,0,0
101928,-100,4,1,0,35,0,0
102667,-100,4,1,0,50,0,0
102773,-100,4,1,0,35,0,0
103513,-100,4,1,0,50,0,0
103935,-100,4,1,0,60,0,0
104041,-100,4,1,0,35,0,0
104358,-100,4,1,0,60,0,0
104463,-100,4,1,0,10,0,0
104780,-200,4,1,0,35,0,0
105203,-100,4,1,0,35,0,0
106048,-100,4,1,0,50,0,0
106153,-100,4,1,0,35,0,0
106893,-100,4,1,0,50,0,0
106998,-100,4,1,0,35,0,0
107738,-100,4,1,0,50,0,0
107844,-100,4,1,0,35,0,0
108583,-100,4,1,0,50,0,0
108689,-100,4,1,0,35,0,0
109428,-100,4,1,0,50,0,0
109534,-100,4,1,0,35,0,0
110273,-100,4,1,0,50,0,0
110379,-100,4,1,0,35,0,0
111118,-100,4,1,0,50,0,0
111224,-100,4,1,0,35,0,0
111752,-100,4,1,0,50,0,0
112069,-100,4,1,0,35,0,0
112808,-100,4,1,0,50,0,0
112914,-100,4,1,0,35,0,0
113653,-100,4,1,0,50,0,0
113759,-100,4,1,0,35,0,0
114498,-100,4,1,0,50,0,0
114604,-100,4,1,0,35,0,0
115344,-100,4,1,0,50,0,0
115449,-100,4,1,0,35,0,0
116189,-100,4,1,0,50,0,0
116294,-100,4,1,0,35,0,0
117034,-100,4,1,0,50,0,0
117139,-100,4,1,0,35,0,0
117879,-100,4,1,0,50,0,0
117984,-100,4,1,0,35,0,0
118513,-100,4,1,0,50,0,0
118829,-100,4,1,0,35,0,0
119569,-100,4,1,0,50,0,0
119675,-100,4,1,0,35,0,0
120414,-100,4,1,0,50,0,0
120520,-100,4,1,0,35,0,0
121259,-100,4,1,0,50,0,0
121365,-100,4,1,0,35,0,0
122104,-100,4,1,0,50,0,0
122210,-100,4,1,0,35,0,0
122949,-100,4,1,0,50,0,0
123055,-100,4,1,0,35,0,0
123794,-100,4,1,0,50,0,0
123900,-100,4,1,0,35,0,0
124639,-100,4,1,0,50,0,0
124745,-100,4,1,0,35,0,0
125273,-100,4,1,0,50,0,0
125590,-100,4,1,0,35,0,0
126329,-100,4,1,0,50,0,0
126435,-100,4,1,0,35,0,0
127175,-100,4,1,0,50,0,0
127280,-100,4,1,0,35,0,0
128020,-100,4,1,0,50,0,0
128125,-100,4,1,0,35,0,0
128865,-100,4,1,0,50,0,0
128970,-100,4,1,0,45,0,0
129076,-100,4,1,0,40,0,0
129182,-100,4,1,0,35,0,0
129710,-100,4,1,0,50,0,0
129815,-100,4,1,0,35,0,0
130555,-100,4,1,0,50,0,0
130660,-100,4,1,0,35,0,0
131400,-100,4,1,0,50,0,0
131506,-100,4,1,0,35,0,0
132245,-100,4,1,0,50,0,0
132351,-100,4,1,0,35,0,0
133090,-100,4,1,0,50,0,0
133196,-100,4,1,0,35,0,0
133935,-100,4,1,0,50,0,0
134041,-100,4,1,0,35,0,0
134780,-100,4,1,0,50,0,0
134886,-100,4,1,0,35,0,0
135414,-100,4,1,0,50,0,0
135731,-100,4,1,0,35,0,0
136470,-100,4,1,0,50,0,0
136576,-100,4,1,0,35,0,0
137315,-100,4,1,0,50,0,0
137421,-100,4,1,0,35,0,0
138160,-100,4,1,0,50,0,0
138266,-100,4,1,0,35,0,0
139006,-100,4,1,0,50,0,0
139111,-100,4,1,0,35,0,0
139851,-100,4,1,0,50,0,0
139956,-100,4,1,0,35,0,0
140696,-100,4,1,0,50,0,0
140801,-100,4,1,0,35,0,0
141541,-100,4,1,0,50,0,0
141646,-100,4,1,0,35,0,0
142175,-100,4,1,0,50,0,0
142491,-100,4,1,0,35,0,0
143231,-100,4,1,0,50,0,0
143337,-100,4,1,0,35,0,0
144076,-100,4,1,0,50,0,0
144182,-100,4,1,0,35,0,0
144921,-100,4,1,0,50,0,0
145027,-100,4,1,0,35,0,0
145766,-100,4,1,0,50,0,0
145872,-100,4,1,0,35,0,0
146611,-100,4,1,0,50,0,0
146717,-100,4,1,0,35,0,0
147456,-100,4,1,0,50,0,0
147562,-100,4,1,0,35,0,0
148301,-100,4,1,0,50,0,0
148407,-100,4,1,0,35,0,0
148935,-100,4,1,0,50,0,0
149252,-100,4,1,0,35,0,0
149991,-100,4,1,0,50,0,0
150097,-100,4,1,0,35,0,0
150837,-100,4,1,0,50,0,0
150942,-100,4,1,0,35,0,0
151682,-100,4,1,0,50,0,0
151787,-100,4,1,0,35,0,0
152527,-100,4,1,0,50,0,0
152632,-100,4,2,0,10,0,0
153372,-100,4,1,0,30,0,0
153477,-100,4,1,0,15,0,0
154217,-100,4,1,0,30,0,0
154322,-100,4,1,0,15,0,0
155062,-100,4,1,0,30,0,0
155167,-100,4,1,0,15,0,0
155907,-100,4,1,0,30,0,0
156013,-100,4,1,0,15,0,0
156752,-100,4,1,0,30,0,0
156858,-100,4,1,0,15,0,0
157597,-100,4,1,0,30,0,0
157703,-100,4,1,0,15,0,0
158442,-100,4,1,0,30,0,0
158548,-100,4,1,0,15,0,0
159076,-100,4,1,0,30,0,0
159393,-100,4,1,0,15,0,0
160132,-100,4,1,0,30,0,0
160238,-100,4,1,0,15,0,0
160977,-100,4,1,0,30,0,0
161083,-100,4,1,0,15,0,0
161822,-100,4,1,0,30,0,0
161928,-100,4,1,0,15,0,0
162667,-100,4,1,0,30,0,0
162773,-100,4,1,0,15,0,0
163513,-100,4,1,0,30,0,0
163618,-100,4,1,0,15,0,0
164358,-100,4,1,0,30,0,0
164463,-100,4,1,0,15,0,0
165203,-100,4,1,0,30,0,0
165308,-100,4,1,0,15,0,0
165837,-100,4,1,0,40,0,0
166259,-100,4,1,0,25,0,0
166470,-100,4,1,0,35,0,0
166893,-100,4,1,0,50,0,0
166998,-100,4,1,0,35,0,0
167738,-100,4,1,0,50,0,0
167844,-100,4,1,0,35,0,0
168583,-100,4,1,0,50,0,0
168689,-100,4,1,0,35,0,0
169428,-100,4,1,0,50,0,0
169534,-100,4,1,0,35,0,0
170273,-100,4,1,0,50,0,0
170379,-100,4,1,0,35,0,0
171118,-100,4,1,0,50,0,0
171224,-100,4,1,0,35,0,0
171963,-100,4,1,0,50,0,0
172069,-100,4,1,0,35,0,0
172597,-100,4,1,0,40,0,0
172914,-100,4,1,0,30,0,0
173653,-100,4,1,0,40,0,0
173759,-100,4,1,0,30,0,0
174498,-100,4,1,0,40,0,0
174604,-100,4,1,0,30,0,0
175344,-100,4,1,0,40,0,0
175449,-100,4,1,0,30,0,0
176189,-100,4,1,0,40,0,0
176294,-100,4,1,0,30,0,0
177034,-100,4,1,0,40,0,0
177139,-100,4,1,0,30,0,0
177879,-100,4,1,0,40,0,0
177984,-100,4,1,0,30,0,0
178724,-100,4,1,0,35,0,0
178829,-100,4,1,0,20,0,0
179358,-100,4,1,0,25,0,0
179675,-100,4,1,0,10,0,0

[Colours]
Combo1 : 182,129,245
Combo2 : 255,166,226

[HitObjects]
408,96,1682,1,0
392,208,2527,1,0
104,288,5062,5,0
80,176,5907,1,0
352,64,8442,5,0
248,96,9287,1,0
224,248,11822,5,0
304,272,12667,1,0
408,72,14146,5,0
408,72,14358,1,0
336,120,14569,1,0
272,64,14780,2,0,B|168:64,1,90
72,304,15414,2,0,B|160:304,1,90
416,248,16048,5,0
328,224,16259,1,0
280,304,16470,1,0
192,280,16682,2,0,B|141:272|98:196|120:120,1,180
165,59,17315,1,0
412,108,17738,5,0
325,132,17949,1,0
412,108,18160,1,0
229,281,18583,1,0
314,308,18794,1,0
229,281,19006,2,0,B|185:316|129:312,1,90
82,248,19428,1,0
128,171,19639,1,0
63,108,19851,1,0
119,38,20062,2,0,B|213:15|295:48,1,180
347,122,20696,1,0
182,261,21118,6,0,B|167:308|125:338,1,90
58,279,21541,1,0
84,193,21752,2,0,B|160:140|163:28,1,180
252,35,22386,1,0
162,38,22597,1,0
255,272,23020,1,0
345,269,23231,1,0
255,272,23442,1,0
353,75,23865,5,0
443,72,24076,1,0
400,151,24287,1,0
455,221,24498,2,0,B|410:305|303:309,4,180
209,279,26611,5,0
279,222,26822,1,0
194,189,27034,1,0
125,246,27245,2,0,B|94:206|113:155,2,90
32,96,27879,6,0,B|256:24|480:96,1,450
474,94,29146,1,0
392,296,29569,1,0
424,216,29780,1,0
334,228,29991,2,0,B|292:244|238:228,1,90
108,62,30625,5,0
29,106,30836,1,0
106,152,31048,1,0
61,230,31259,2,0,B|21:270|14:317,2,90
235,47,32104,1,0
317,82,32315,1,0
393,33,32527,1,0
398,248,32949,6,0,B|384:296|345:328,1,90
386,221,33372,2,0,B|372:269|333:301,1,90
126,163,33794,6,0,B|140:115|179:83,1,90
247,36,34639,5,0
330,71,34851,1,0
279,145,35062,2,0,B|248:189|254:243,1,90
312,296,35484,2,0,B|399:266|429:156,1,180
428,75,36118,1,0
428,75,36329,1,0
200,184,36752,5,0
200,184,36963,1,0
128,232,37175,2,0,B|112:280|64:296,1,90
40,208,37597,2,0,B|63:165|56:112,1,90
136,72,38020,2,0,B|224:96|312:56,1,180
400,72,38653,1,0
360,152,38865,1,0
448,176,39076,2,0,B|472:216|464:264,1,90
416,336,39498,1,0
416,336,39710,1,0
176,264,40132,5,0
176,264,40344,1,0
96,216,40555,2,0,B|43:209|2:232,1,90
48,136,40977,2,0,B|99:122|144:144,1,90
116,52,41400,1,0
312,208,41822,5,0
368,136,42034,1,0
288,96,42245,2,0,B|296:48|328:16,1,90
408,56,42667,1,0
496,88,42879,1,0
456,168,43090,2,0,B|404:203|406:300|456:336,1,180
360,344,43724,1,0
288,287,43935,6,0,B|296:240|279:199,1,90
180,88,44358,2,0,B|172:130|192:176,1,90
128,240,44780,2,0,B|56:228|16:160,1,135
19,166,45203,1,0
120,152,45414,1,0
208,200,45625,2,0,B|256:208|288:240,1,90
376,232,46048,2,0,B|432:160|416:56,2,180
272,304,47104,5,0
208,240,47315,2,0,B|216:192|208:144,1,90
193,61,47738,1,0
124,118,47949,1,0
280,56,48160,2,0,B|357:60|422:92|448:128,1,180
424,208,48794,1,0
376,280,49006,6,0,B|400:328|440:352,1,90
296,304,49428,2,0,B|272:256|232:232,1,90
72,165,49851,2,0,B|89:262|176:304,1,180
256,264,50484,5,0
296,184,50696,1,0
280,96,50907,1,0
216,32,51118,2,0,B|168:40|136:80,1,90
72,136,51541,2,0,B|112:224|32:312,1,180
120,344,52175,1,0
200,304,52386,2,0,B|240:280|288:288,1,90
320,160,52808,1,0
360,240,53020,1,0
384,96,53231,2,0,B|326:28|216:32,2,180
352,184,54287,5,0
272,232,54498,1,0
184,224,54710,5,0
96,192,54921,2,0,B|56:264|80:328,1,135
77,321,55344,1,0
164,311,55555,2,0,B|184:280|184:224,1,90
184,136,55977,1,0
232,56,56189,2,0,B|264:88|280:136,2,90
320,32,56822,1,0
408,56,57034,1,0
392,144,57245,2,0,B|392:192|416:240,1,90
440,320,57667,1,0
351,304,57879,2,0,B|261:277|164:332,1,180
352,288,71822,6,0,B|402:291|440:312,2,90
280,232,72456,1,0
260,63,72667,2,0,B|271:108|241:150,2,90
173,87,73301,1,0
157,175,73513,6,0,B|142:228|188:265,1,90
290,286,73935,2,0,B|344:272|353:214,1,90
320,114,74358,2,0,B|281:75|226:96,2,90
379,322,75203,6,0,B|473:310,2,90
311,262,75837,1,0
252,193,76048,2,0,B|283:108,1,90
195,128,76470,2,0,B|164:212,1,90
341,177,76893,2,0,B|372:92,2,90
311,262,77527,1,0
224,280,77738,2,0,B|128:304,1,90
72,232,78160,2,0,B|147:167|241:193,1,180
416,320,79006,5,0
160,80,79639,2,0,B|248:56,2,90
192,168,80273,2,0,B|208:224|176:304|112:328,1,180
32,304,80907,1,0
72,224,81118,2,0,B|160:248,1,90
248,240,81541,1,0
326,195,81752,1,0
306,107,81963,6,0,B|359:61|440:79,1,135
432,77,82386,1,0
461,162,82597,1,0
410,236,82808,1,0
431,323,83020,1,0
431,323,83125,1,0
431,323,83231,1,0
410,236,83442,1,0
344,297,83653,6,0,B|258:341|157:321,1,180
80,305,84287,1,0
114,222,84498,2,0,B|122:173|96:128,1,90
170,35,84921,2,0,B|162:84|188:129,1,90
297,269,85344,6,0,B|322:172|271:97,1,180
72,221,86189,1,0
147,172,86400,1,0
72,221,86611,2,0,B|154:265,2,90
285,317,87456,2,0,B|380:307,1,90
438,63,88090,2,0,B|348:72,1,90
114,89,88724,5,0
203,83,88935,1,0
114,89,89146,1,0
285,142,89569,5,0
371,166,89780,1,0
285,142,89991,2,0,B|274:195|307:228,1,90
235,323,90414,2,0,B|246:270|215:240,1,90
128,214,90837,1,0
143,302,91048,2,0,B|214:288|244:206|191:151,1,180
116,128,91682,1,0
334,45,92104,5,0
416,80,92315,1,0
334,45,92527,1,0
416,80,92738,1,0
62,266,93160,1,0
151,251,93372,1,0
373,320,93794,5,0
417,241,94006,1,0
461,162,94217,1,0
417,241,94428,2,0,B|356:209|279:251|284:317,1,180
283,311,95062,1,0
63,118,95484,6,0,B|176:133|176:133|197:159|197:159|223:139,1,180
368,33,96329,1,0
410,112,96541,2,0,B|385:159|410:208,1,90
365,278,96963,1,0
281,242,97175,2,0,B|239:154|286:68,1,180
368,33,97808,5,0
285,69,98020,2,0,B|234:72|202:25,1,90
136,168,98442,2,0,B|156:121|123:74,1,90
48,232,98865,6,0,B|101:292|175:270|175:270|206:300|206:300|240:288|240:288|264:304|264:304|297:280|297:280|347:299|347:299|371:242|432:240,1,450
432,328,100132,1,0
429,147,100555,2,0,B|427:51,1,90
339,35,100977,5,0
429,147,101189,1,0
203,85,101611,5,0
163,165,101822,2,0,B|119:179|69:163,1,90
203,85,102245,5,0
29,241,102667,1,0
249,319,103090,1,0
428,169,103513,1,0
203,85,103935,6,0,B|158:107|144:159,1,90
226,110,104358,2,0,B|181:132|167:184,1,90,0|0
352,324,104780,6,0,B|397:302|411:250,1,90,0|0
428,169,105625,5,0
365,103,105836,1,0
411,26,106048,1,0
421,115,106259,1,0
341,156,106470,2,0,B|290:158|248:134,1,90
191,196,106893,2,0,B|191:237|219:281,1,90
42,224,107315,2,0,B|63:135|169:112,1,180
254,137,107949,1,0
341,159,108160,6,0,B|359:200|358:248,1,90
213,286,108583,1,0
299,315,108794,1,0
136,334,109006,2,0,B|88:332|30:298|24:211,1,180
46,127,109639,1,0
121,76,109851,5,0
247,122,110062,1,0
140,204,110273,1,0
192,79,110484,1,0
268,190,110696,6,0,B|320:260|430:259,1,180
491,197,111329,2,0,B|502:147|463:102,1,90
407,175,111752,5,0
311,327,111963,1,0
131,308,112175,1,0
111,128,112386,6,0,B|120:218,2,90
149,46,113020,1,0
203,117,113231,5,0
376,150,113442,1,0
292,121,113653,1,0
436,217,113865,1,0
459,303,114076,6,0,B|378:352|276:337,1,180
197,320,114710,1,0
228,235,114921,2,0,B|192:202|192:156,1,90
241,79,115344,1,0
286,156,115555,1,0
139,251,115766,6,0,B|64:247|25:172,1,135
30,181,116189,1,0
47,93,116400,2,0,B|61:47|113:34,1,90
181,89,116822,1,0
181,89,116928,1,0
181,89,117034,2,0,B|274:88,1,90
345,138,117456,2,0,B|338:239|419:292,1,180
503,321,118090,5,0
487,231,118301,2,0,B|510:192|511:146,1,90
457,26,118724,2,0,B|434:65|432:111,1,90
227,221,119146,2,0,B|321:249|399:195,1,180
343,123,119780,1,0
313,207,119991,2,0,B|302:255|335:298,1,90
415,323,120414,2,0,B|426:275|393:232,1,90
254,137,120836,2,0,B|156:161|78:102,2,180
234,49,121893,5,0
165,107,122104,2,0,B|131:146|138:199,1,90
199,254,122527,2,0,B|290:232|376:272,1,180
443,329,123160,1,0
483,248,123372,1,0
415,188,123583,1,0
476,122,123794,2,0,B|440:88|436:37,1,90
267,51,124217,2,0,B|327:117|323:222,2,180
204,115,125273,5,0
49,118,125484,1,0
204,115,125696,1,0
130,167,125907,2,0,B|95:232|132:305,1,135
128,296,126329,1,0
214,323,126541,2,0,B|257:304|309:310,1,90
391,319,126963,2,0,B|394:268|369:223,1,90
392,61,127386,2,0,B|389:112|410:149,1,90
460,223,127808,5,0
315,170,128020,1,0
211,282,128231,2,0,B|169:304|123:304,2,90
228,191,128865,5,0
204,169,128970,1,0
186,142,129076,1,0
178,111,129182,1,0
176,79,129287,2,0,B|127:70|98:31,1,90
57,113,129710,2,0,B|24:207|38:291,1,180
104,352,130344,1,0
168,288,130555,2,0,B|224:280|264:296,1,90
328,240,130977,1,0
272,168,131189,1,0
272,168,131294,1,0
272,168,131400,1,0
328,96,131611,1,0
424,216,131822,6,0,B|456:256|455:298,1,90,0|0
343,184,132245,2,0,B|312:224|312:266,1,90,0|0
416,128,132667,2,0,B|376:48|256:32,1,180
192,80,133301,1,0
224,168,133513,2,0,B|224:224|176:248,1,90
96,248,133935,2,0,B|96:192|144:168,1,90
264,288,134358,2,0,B|352:320|440:272,1,180
392,192,134991,5,0
424,104,135203,1,0
424,104,135308,1,0
424,104,135414,1,0
260,189,135625,2,0,B|304:184|320:128,1,90
424,104,136048,2,0,B|372:185|400:288,1,180
328,336,136682,5,0
248,296,136893,1,0
192,224,137104,1,0
75,290,137315,2,0,B|112:320|160:312,1,90
192,224,137738,2,0,B|168:136|200:40,1,180
368,24,138372,5,0
400,104,138583,2,0,B|368:144|368:200,1,90
368,354,139006,2,0,B|400:314|400:272,1,90
456,200,139428,1,0
304,256,139745,1,0
304,256,139851,2,0,B|264:288|208:280,1,90
136,320,140273,1,0
72,256,140484,1,0
120,176,140696,2,0,B|120:128|96:80,1,90
251,86,141118,2,0,B|252:182|303:256,1,180
376,312,141752,5,0
408,224,141963,2,0,B|456:216|480:168,1,90
434,48,142386,2,0,B|396:79|400:128,1,90
158,234,142808,2,0,B|254:234|326:179,1,180
312,88,143442,6,0,B|289:40|240:32,1,90
224,120,143865,1,0
224,120,143970,1,0
224,120,144076,1,0
136,144,144287,1,0
200,208,144498,2,0,B|208:256|184:296,1,90
296,176,144921,2,0,B|320:217|364:233,1,90
384,144,145344,5,0
280,280,145555,1,0
384,144,145766,2,0,B|400:96|384:56,1,90
296,32,146189,1,0
222,86,146400,1,0
195,96,146506,1,0
161,94,146611,1,0
83,49,146822,1,0
83,140,147034,2,0,B|70:186|23:206,1,90
32,334,147456,2,0,B|44:287|91:267,1,90
224,152,147879,2,0,B|327:150|392:80,2,180
152,200,148935,5,0
214,326,149146,2,0,B|240:296|232:240,1,90
224,152,149569,2,0,B|208:80|272:32,1,135
269,33,149991,1,0
360,56,150203,1,0
368,144,150414,1,0
368,144,150520,1,0
416,216,150731,1,0
416,216,150837,1,0
328,224,151048,6,0,B|336:280|304:320,1,90
243,251,151470,1,0
103,135,151682,1,0
171,194,151893,2,0,B|196:164|188:108,1,90
273,79,152315,1,0
353,110,152527,6,0,B|339:158|309:193|309:193|340:226|359:273,1,180
185,324,153372,5,0
109,160,153794,1,0
52,230,154006,1,0
109,160,154217,1,0
288,159,154639,5,0
438,60,155062,1,0
360,105,155273,1,0
365,322,155696,1,0
328,239,155907,1,0
160,304,156329,5,0
119,128,156752,1,0
140,215,156963,1,0
206,153,157175,1,0
284,109,157386,1,0
371,89,157597,1,0
254,284,158020,6,0,B|328:341|428:308,1,180
399,222,158653,1,0
429,137,158865,2,0,B|463:104|461:52,1,90
339,145,159287,2,0,B|265:88|165:121,1,180
54,324,160132,5,0
214,242,160555,1,0
292,286,160766,1,0
371,243,160977,1,0
293,80,161400,1,0
328,162,161611,1,0
371,243,161822,1,0
328,162,162034,1,0
151,194,162456,1,0
221,137,162667,1,0
231,316,163090,5,0
328,162,163513,2,0,B|374:183|420:157,1,90
368,82,163935,1,0
457,82,164146,1,0
278,84,164358,2,0,B|239:121|188:120,1,90
111,94,164780,6,0,B|60:176|92:276,1,180
166,314,165414,1,0
335,152,165837,1,0
382,308,166048,2,0,B|402:219,1,90
268,79,166470,6,0,B|166:67|98:124,2,180
238,164,167527,1,0
293,234,167738,1,0
254,315,167949,1,0
413,96,168372,1,0
447,179,168583,1,0
357,166,168794,1,0
383,252,169006,2,0,B|412:293|400:342,1,90
254,315,169428,6,0,B|188:244|80:263,2,180
342,330,170484,1,0
383,252,170696,2,0,B|385:199|439:167,1,90
479,104,171118,1,0
266,202,171541,6,0,B|223:220|172:210,1,90
160,122,171963,1,0
71,141,172175,2,0,B|26:227|72:320,1,180
69,314,172808,1,0
216,48,173231,6,0,B|312:35|383:110,1,180
424,184,173865,1,0
440,272,174076,1,0
352,280,174287,2,0,B|312:312|264:312,1,90
200,256,174710,1,0
280,216,174921,2,0,B|288:144|248:80,1,135
232,64,175344,2,0,B|200:104|152:104,1,90
80,152,175766,6,0,B|40:176|40:232,1,90
168,328,176189,2,0,B|248:272|248:168,2,180
96,272,177245,1,0
136,192,177456,2,0,B|92:160|88:112,1,90
128,40,177879,1,0
88,118,178090,1,0
326,201,178513,5,0
261,136,178724,2,0,B|223:102|177:111,1,90
237,225,179146,2,0,B|189:240|174:284,1,90
349,112,179569,2,0,B|359:62|325:24,1,90
326,201,179991,5,0
