osu file format v12

[General]
AudioFilename: Pray (TV Size).mp3
AudioLeadIn: 1000
PreviewTime: 11858
Countdown: 0
SampleSet: Soft
StackLeniency: 0.7
Mode: 0
LetterboxInBreaks: 0
WidescreenStoryboard: 0

[Editor]
DistanceSpacing: 1.7
BeatDivisor: 4
GridSize: 4

[Metadata]
Title:Pray (TV Size)
TitleUnicode:Pray (TV Size)
Artist:Tommy heavenly6
ArtistUnicode:Tommy heavenly6
Creator:ReySHeL
Version:Insane
Source:Gintama
Tags:opening mintong89
BeatmapID:333884
BeatmapSetID:132834

[Difficulty]
HPDrainRate:7
CircleSize:4
OverallDifficulty:7
ApproachRate:9
SliderMultiplier:1.8
SliderTickRate:1

[Events]
//Background and Video events
0,0,"BG.jpg",0,0
Video,50,"OP.avi"
//Break Periods
//Storyboard Layer 0 (Background)
//Storyboard Layer 1 (Fail)
//Storyboard Layer 2 (Pass)
//Storyboard Layer 3 (Foreground)
//Storyboard Sound Samples
//Background Colour Transformations
3,100,163,162,255

[TimingPoints]
903,337.078651685393,4,2,1,55,1,0
11015,-100,4,2,1,35,0,0
11689,-100,4,2,1,55,0,0
17082,-100,4,2,2,55,0,0
17419,-100,4,2,1,55,0,0
19779,-100,4,2,2,55,0,0
20116,-100,4,2,1,55,0,0
25172,-100,4,2,2,55,0,0
25509,-100,4,2,1,55,0,0
27785,-100,4,2,3,55,0,0
28206,-100,4,2,1,55,0,0
30481,-100,4,2,3,55,0,0
30902,-100,4,2,1,55,0,0
31914,-100,4,2,3,55,0,0
32251,-100,4,2,1,55,0,0
32588,-100,4,2,3,35,0,0
33262,-100,4,2,1,55,0,0
53150,-100,4,2,3,45,0,0
53824,-100,4,2,1,45,0,0
54161,-100,4,2,2,55,0,0
54329,-100,4,2,3,35,0,0
54835,-100,4,2,1,55,0,1
64947,-100,4,2,2,55,0,1
65116,-100,4,2,3,35,0,1
65116,-100,4,2,3,35,0,1
65285,-100,4,2,3,35,0,0
65622,-100,4,2,1,55,0,1
70846,-100,4,2,3,35,0,1
71015,-100,4,2,1,55,0,1
78094,-100,4,2,3,45,0,1
78431,-100,4,2,1,45,0,1
78599,-100,4,2,3,35,0,1
79105,-100,4,2,1,55,0,0
83150,-100,4,2,3,35,0,0
83824,-100,4,2,2,55,0,0
84667,-100,4,2,1,40,0,0
87195,-100,4,2,1,30,0,0
87869,-100,4,2,1,20,0,0
88543,-100,4,2,1,10,0,0

[Colours]
Combo1 : 18,237,89
Combo2 : 225,30,225
Combo3 : 13,122,242
Combo4 : 243,133,12

[HitObjects]
368,80,903,6,0,P|396:168|384:256,1,180,4|8,0:0|0:0,0:0:0:0:
144,324,1577,2,0,P|152:268|172:236,1,90
272,168,1914,1,8,0:0:0:0:
156,120,2082,1,0,0:0:0:0:
156,120,2167,1,0,0:0:0:0:
156,120,2251,6,0,P|188:76|228:56,1,90,2|0,0:0|0:0,0:0:0:0:
264,216,2588,2,0,P|232:260|192:280,1,90,8|0,0:0|0:0,0:0:0:0:
40,280,2925,2,0,P|72:236|112:216,1,90,2|0,0:0|0:0,0:0:0:0:
264,216,3262,1,8,0:0:0:0:
172,328,3431,1,8,0:0:0:0:
172,328,3515,1,8,0:0:0:0:
172,328,3599,5,4,0:0:0:0:
264,216,3768,1,0,0:0:0:0:
112,156,3936,2,0,P|172:84|252:60,1,180,8|0,0:0|0:0,0:0:0:0:
368,116,4442,1,0,0:0:0:0:
264,216,4610,2,0,P|240:264|212:288,2,90,8|0|2,0:0|0:0|0:0,0:0:0:0:
200,108,5116,5,0,0:0:0:0:
328,108,5285,2,0,P|368:148|384:188,1,90,8|0,0:0|0:0,0:0:0:0:
317,285,5622,2,0,P|277:245|261:205,1,90,2|0,0:0|0:0,0:0:0:0:
152,276,5959,2,0,P|124:310|103:357,1,90,8|0,0:0|0:0,0:0:0:0:
32,205,6296,5,4,0:0:0:0:
108,94,6464,1,0,0:0:0:0:
161,218,6633,2,0,P|205:290|306:306,1,180,8|0,0:0|0:0,0:0:0:0:
364,184,7138,1,0,0:0:0:0:
380,327,7307,1,8,0:0:0:0:
272,230,7476,1,0,0:0:0:0:
243,343,7644,6,0,P|198:327|165:291,1,90,2|0,0:0|0:0,0:0:0:0:
42,248,7981,2,0,P|58:203|94:170,1,90,8|0,0:0|0:0,0:0:0:0:
224,126,8318,2,0,P|208:171|172:204,1,90,2|0,0:0|0:0,0:0:0:0:
79,94,8655,1,8,0:0:0:0:
203,20,8824,1,0,0:0:0:0:
203,20,8908,1,0,0:0:0:0:
203,20,8992,6,0,P|267:34|297:55,1,90,2|0,0:0|0:0,0:0:0:0:
325,176,9329,2,0,P|263:240|176:274,1,180,8|0,0:0|0:0,0:0:0:0:
44,316,9835,2,0,P|48:272|60:224,2,90,0|8|0,0:0|0:0|0:0,0:0:0:0:
156,196,10341,5,0,0:0:0:0:
184,348,10509,1,0,0:0:0:0:
284,244,10678,2,0,P|308:204|344:164,1,90,6|0,0:0|0:0,0:0:0:0:
460,96,11015,1,0,0:0:0:0:
468,120,11099,1,0,0:0:0:0:
472,148,11183,1,0,0:0:0:0:
476,176,11268,1,0,0:0:0:0:
476,204,11352,1,8,0:0:0:0:
412,340,11520,1,0,0:0:0:0:
412,340,11605,1,0,0:0:0:0:
412,340,11689,6,0,B|376:288|376:228|340:172,1,180,6|8,0:0|0:0,0:0:0:0:
336,36,12195,1,0,0:0:0:0:
224,128,12363,2,0,P|216:180|224:216,1,90
348,315,12700,2,0,P|356:271|348:228,1,90,8|0,0:0|0:0,0:0:0:0:
348,100,13037,6,0,P|392:64|424:52,2,90,0|0|8,0:0|0:0|0:0,0:0:0:0:
308,228,13543,1,0,0:0:0:0:
188,292,13711,2,0,P|144:304|88:292,1,90
16,180,14049,2,0,B|88:152|136:192|200:156,1,180,8|0,0:0|0:0,0:0:0:0:
312,80,14554,5,0,0:0:0:0:
308,228,14723,2,0,P|272:272|244:292,1,90,8|0,0:0|0:0,0:0:0:0:
192,160,15060,2,0,P|184:116|192:60,1,90
312,80,15397,2,0,P|356:104|384:136,1,90,8|0,0:0|0:0,0:0:0:0:
384,288,15734,6,0,P|296:320|204:320,1,180,0|8,0:0|0:0,0:0:0:0:
100,284,16240,2,0,P|100:332|116:376,2,90,0|0|0,0:0|0:0|0:0,0:0:0:0:
209,247,16745,2,0,P|206:202|192:160,1,90,8|0,0:0|0:0,0:0:0:0:
84,92,17082,6,0,P|160:44|252:48,1,180,8|8,0:0|0:0,0:0:0:0:
360,96,17588,1,0,0:0:0:0:
340,292,17756,2,0,P|312:260|296:212,1,90
228,128,18094,2,0,P|188:172|180:212,2,90,8|0|0,0:0|0:0|0:0,0:0:0:0:
360,96,18599,5,0,0:0:0:0:
360,96,18768,2,0,P|396:192|416:272,1,180,8|0,0:0|0:0,0:0:0:0:
316,356,19273,1,0,0:0:0:0:
268,228,19442,2,0,P|220:152|160:80,1,180,8|8,0:0|0:0,0:0:0:0:
28,60,19947,5,0,0:0:0:0:
48,212,20116,2,0,P|50:256|66:298,1,90,8|0,0:0|0:0,0:0:0:0:
176,204,20453,2,0,P|180:152|200:108,1,90
316,40,20790,1,8,0:0:0:0:
316,40,21127,5,0,0:0:0:0:
296,184,21296,1,0,0:0:0:0:
428,128,21464,2,0,P|432:180|432:220,1,90,8|0,0:0|0:0,0:0:0:0:
316,332,21801,2,0,P|312:280|312:240,1,90
220,132,22138,2,0,P|196:180|184:216,1,90,8|0,0:0|0:0,0:0:0:0:
164,360,22476,5,0,0:0:0:0:
68,264,22644,1,0,0:0:0:0:
92,132,22813,2,0,P|120:92|160:56,1,90,8|0,0:0|0:0,0:0:0:0:
200,200,23150,2,0,P|196:248|184:292,2,90,0|0|8,0:0|0:0|0:0,0:0:0:0:
216,56,23655,1,0,0:0:0:0:
332,144,23824,6,0,P|360:236|372:320,1,180,0|8,0:0|0:0,0:0:0:0:
252,376,24329,1,0,0:0:0:0:
124,332,24498,2,0,P|156:280|180:260,1,90
292,188,24835,2,0,P|303:231|304:276,2,90,8|0|8,0:0|0:0|0:0,0:0:0:0:
168,136,25341,5,0,0:0:0:0:
272,48,25509,2,0,P|320:48|360:72,1,90,8|0,0:0|0:0,0:0:0:0:
375,208,25846,2,0,P|327:208|287:184,1,90
452,124,26183,2,0,P|480:168|488:208,1,90,8|0,0:0|0:0,0:0:0:0:
428,328,26520,6,0,P|340:344|256:312,1,180,0|8,0:0|0:0,0:0:0:0:
236,180,27026,1,0,0:0:0:0:
136,272,27195,2,0,P|136:324|144:360,2,90,0|0|8,0:0|0:0|0:0,0:0:0:0:
100,132,27700,1,0,0:0:0:0:
100,132,27785,1,2,0:0:0:0:
100,132,27869,6,0,P|172:76|264:68,1,180,2|8,0:0|0:0,0:0:0:0:
336,176,28374,1,0,0:0:0:0:
284,300,28543,2,0,P|232:308|188:308,1,90
104,208,28880,2,0,P|148:184|188:172,2,90,8|0|0,0:0|0:0|0:0,0:0:0:0:
40,328,29386,5,0,0:0:0:0:
176,328,29554,2,0,P|256:280|296:204,1,180,8|0,0:0|0:0,0:0:0:0:
224,88,30060,2,0,P|196:132|188:172,1,90,0|8,0:0|0:0,0:0:0:0:
332,148,30397,1,0,0:0:0:0:
332,148,30481,1,2,0:0:0:0:
332,148,30565,6,0,P|344:92|344:60,1,90,2|0,0:0|0:0,0:0:0:0:
464,120,30902,2,0,P|464:212|436:296,1,180,8|0,0:0|0:0,0:0:0:0:
292,318,31408,2,0,P|299:273|316:232,1,90,0|8,0:0|0:0,0:0:0:0:
220,124,31745,1,0,0:0:0:0:
220,124,31829,1,0,0:0:0:0:
220,124,31914,6,0,P|200:184|184:212,1,90,2|0,0:0|0:0,0:0:0:0:
52,300,32251,2,0,P|8:248|-4:220,1,90,12|0,0:0|0:0,0:0:0:0:
24,84,32588,1,8,0:0:0:0:
36,104,32672,1,8,0:0:0:0:
52,120,32756,1,8,0:0:0:0:
68,136,32841,1,8,0:0:0:0:
88,148,32925,1,8,0:0:0:0:
104,160,33009,1,8,0:0:0:0:
120,176,33094,1,8,0:0:0:0:
136,192,33178,1,8,0:0:0:0:
148,208,33262,6,0,P|172:248|184:292,1,90,4|0,0:0|0:0,0:0:0:0:
280,356,33599,2,0,B|304:296|272:248|300:176,1,180,8|0,0:0|0:0,0:0:0:0:
388,76,34105,1,0,0:0:0:0:
432,204,34273,1,8,0:0:0:0:
432,204,34610,6,0,P|440:264|460:300,2,90,0|0|8,0:0|0:0|0:0,0:0:0:0:
356,92,35116,2,0,P|276:52|180:64,1,180
120,176,35622,2,0,P|168:192|216:180,2,90,8|0|0,0:0|0:0|0:0,0:0:0:0:
188,60,36127,1,0,0:0:0:0:
49,73,36296,6,0,P|25:161|33:249,1,180,8|0,0:0|0:0,0:0:0:0:
120,344,36801,2,0,P|124:288|120:252,1,90,0|8,0:0|0:0,0:0:0:0:
268,40,37307,6,0,P|264:96|272:136,1,90,2|0,0:0|0:0,0:0:0:0:
384,204,37644,2,0,P|388:148|380:108,1,90,8|0,0:0|0:0,0:0:0:0:
264,252,37981,2,0,P|260:308|268:348,1,90,2|0,0:0|0:0,0:0:0:0:
384,344,38318,1,8,0:0:0:0:
384,344,38655,6,0,P|396:292|416:260,1,90
404,144,38992,2,0,P|356:64|276:28,1,180,8|0,0:0|0:0,0:0:0:0:
164,80,39498,1,0,0:0:0:0:
260,164,39667,1,8,0:0:0:0:
260,164,40004,6,0,P|208:180|168:204,2,90,0|0|8,0:0|0:0|0:0,0:0:0:0:
264,288,40509,2,0,P|176:324|96:308,1,180
40,192,41015,2,0,P|48:144|68:108,2,90,8|0|0,0:0|0:0|0:0,0:0:0:0:
95,307,41520,5,0,0:0:0:0:
172,204,41689,2,0,B|204:160|192:96|236:36,1,180,8|0,0:0|0:0,0:0:0:0:
312,152,42195,2,0,P|332:204|336:240,2,90,0|8|0,0:0|0:0|0:0,0:0:0:0:
232,248,42700,6,0,P|220:296|220:340,1,90,2|0,0:0|0:0,0:0:0:0:
328,316,43037,2,0,P|376:328|420:328,1,90,8|0,0:0|0:0,0:0:0:0:
392,148,43374,2,0,P|380:196|380:240,2,90,2|0|6,0:0|0:0|0:0,0:0:0:0:
52,96,44049,6,0,P|140:72|224:96,1,180,4|8,0:0|0:0,0:0:0:0:
260,224,44554,1,0,0:0:0:0:
120,260,44723,2,0,P|128:196|144:164,2,90,0|0|8,0:0|0:0|0:0,0:0:0:0:
356,348,45397,6,0,P|376:256|368:172,1,180,0|8,0:0|0:0,0:0:0:0:
272,40,46071,2,0,P|272:88|276:136,2,90,0|0|8,0:0|0:0|0:0,0:0:0:0:
368,20,46577,1,0,0:0:0:0:
448,76,46745,6,0,P|468:160|476:260,1,180,0|8,0:0|0:0,0:0:0:0:
376,332,47251,1,0,0:0:0:0:
268,268,47419,2,0,P|296:233|332:206,2,90,0|0|8,0:0|0:0|0:0,0:0:0:0:
88,268,48094,6,0,P|100:316|120:364,2,90,0|0|8,0:0|0:0|0:0,0:0:0:0:
57,92,48599,1,0,0:0:0:0:
184,224,48768,1,0,0:0:0:0:
14,193,48936,1,0,0:0:0:0:
174,123,49105,2,0,P|264:89|349:95,1,180,8|4,0:0|0:0,0:0:0:0:
328,273,49779,6,0,P|295:228|280:188,2,90,8|0|0,0:0|0:0|0:0,0:0:0:0:
425,319,50285,1,0,0:0:0:0:
489,232,50453,2,0,P|457:146|405:76,1,180,8|0,0:0|0:0,0:0:0:0:
137,37,51127,6,0,P|131:84|138:125,1,90,8|0,0:0|0:0,0:0:0:0:
264,129,51464,2,0,P|270:176|263:217,1,90
135,285,51801,1,8,0:0:0:0:
44,176,51970,1,0,0:0:0:0:
135,285,52138,6,0,P|229:308|309:289,1,180,0|8,0:0|0:0,0:0:0:0:
304,136,52813,1,0,0:0:0:0:
388,32,52981,1,0,0:0:0:0:
436,160,53150,2,0,P|424:216|400:252,1,90,8|0,0:0|0:0,0:0:0:0:
264,324,53487,6,0,P|276:268|300:232,1,90,8|0,0:0|0:0,0:0:0:0:
304,136,53824,2,0,P|264:114|220:107,1,90,6|0,0:0|0:0,0:0:0:0:
68,164,54161,1,2,0:0:0:0:
72,188,54245,1,2,0:0:0:0:
80,208,54329,1,8,0:0:0:0:
88,228,54414,1,8,0:0:0:0:
96,248,54498,1,8,0:0:0:0:
108,268,54582,1,8,0:0:0:0:
120,288,54667,1,8,0:0:0:0:
136,304,54751,1,8,0:0:0:0:
156,316,54835,6,0,P|200:328|248:332,1,90,4|0,0:0|0:0,0:0:0:0:
380,240,55172,2,0,P|336:228|288:224,1,90,8|0,0:0|0:0,0:0:0:0:
180,108,55509,2,0,P|168:152|164:200,2,90,0|0|8,0:0|0:0|0:0,0:0:0:0:
276,28,56015,1,0,0:0:0:0:
348,192,56183,5,0,0:0:0:0:
180,108,56352,1,0,0:0:0:0:
360,88,56520,2,0,P|404:72|464:76,1,90,8|0,0:0|0:0,0:0:0:0:
468,224,56858,2,0,P|448:272|416:308,1,90
264,320,57195,2,0,P|288:272|316:240,1,90,8|0,0:0|0:0,0:0:0:0:
360,88,57532,5,0,0:0:0:0:
220,28,57700,1,0,0:0:0:0:
240,180,57869,2,0,B|212:240|152:276|152:276|96:280,1,180,8|0,0:0|0:0,0:0:0:0:
16,216,58374,2,0,P|48:180|92:164,1,90,0|8,0:0|0:0,0:0:0:0:
240,180,58711,1,0,0:0:0:0:
136,348,58880,5,0,0:0:0:0:
132,216,59049,1,0,0:0:0:0:
264,320,59217,2,0,P|316:292|348:260,1,90,8|0,0:0|0:0,0:0:0:0:
360,88,59554,2,0,P|320:112|284:148,1,90
200,264,59891,1,8,0:0:0:0:
124,120,60060,1,0,0:0:0:0:
36,244,60228,6,0,P|36:288|40:336,2,90,0|0|8,0:0|0:0|0:0,0:0:0:0:
124,120,60734,1,0,0:0:0:0:
200,264,60902,1,0,0:0:0:0:
36,244,61071,1,0,0:0:0:0:
204,172,61240,2,0,P|292:152|376:176,1,180,6|0,0:0|0:0,0:0:0:0:
364,300,61745,6,0,P|320:276|288:252,1,90,0|8,0:0|0:0,0:0:0:0:
228,92,62082,1,0,0:0:0:0:
288,252,62251,1,0,0:0:0:0:
137,217,62419,1,0,0:0:0:0:
228,92,62588,2,0,P|304:56|396:80,1,180,8|0,0:0|0:0,0:0:0:0:
408,204,63094,6,0,P|384:248|348:280,2,90,0|8|0,0:0|0:0|0:0,0:0:0:0:
271,157,63599,1,0,0:0:0:0:
418,87,63768,1,0,0:0:0:0:
478,251,63936,2,0,P|478:298|476:346,1,90,8|0,0:0|0:0,0:0:0:0:
304,341,64273,6,0,P|304:293|308:241,1,90
223,101,64610,2,0,P|199:141|179:189,1,90,8|0,0:0|0:0,0:0:0:0:
96,308,64947,1,2,0:0:0:0:
92,284,65032,1,2,0:0:0:0:
88,260,65116,1,8,0:0:0:0:
88,236,65200,1,8,0:0:0:0:
88,212,65285,1,8,0:0:0:0:
92,188,65369,1,8,0:0:0:0:
96,164,65453,1,8,0:0:0:0:
100,140,65537,1,8,0:0:0:0:
108,120,65622,6,0,P|140:64|168:40,1,90,4|0,0:0|0:0,0:0:0:0:
312,36,65959,2,0,P|288:80|260:112,1,90,8|0,0:0|0:0,0:0:0:0:
204,212,66296,2,0,P|196:260|196:304,2,90,0|0|8,0:0|0:0|0:0,0:0:0:0:
262,110,66801,1,0,0:0:0:0:
336,224,66970,5,0,0:0:0:0:
164,124,67138,1,0,0:0:0:0:
312,36,67307,2,0,L|404:36,1,90,8|0,0:0|0:0,0:0:0:0:
440,176,67644,2,0,L|440:268,1,90
328,356,67981,2,0,L|328:264,1,90,8|0,0:0|0:0,0:0:0:0:
372,112,68318,5,0,0:0:0:0:
336,224,68487,1,0,0:0:0:0:
192,116,68655,1,8,0:0:0:0:
148,264,68824,1,0,0:0:0:0:
84,332,68992,2,0,P|120:348|180:356,2,90,0|0|8,0:0|0:0|0:0,0:0:0:0:
24,200,69498,1,0,0:0:0:0:
68,52,69667,6,0,P|104:80|136:124,1,90
156,228,70004,2,0,P|200:212|236:180,1,90,8|0,0:0|0:0,0:0:0:0:
336,72,70341,1,0,0:0:0:0:
320,212,70509,1,0,0:0:0:0:
228,80,70678,1,8,0:0:0:0:
409,146,70846,1,8,0:0:0:0:
409,146,70931,1,8,0:0:0:0:
409,146,71015,6,0,P|423:206|422:246,1,90,4|0,0:0|0:0,0:0:0:0:
328,356,71352,2,0,P|314:296|315:256,1,90,8|0,0:0|0:0,0:0:0:0:
276,120,71689,2,0,P|256:80|216:40,1,90
172,220,72026,2,0,P|156:280|136:316,1,90,8|0,0:0|0:0,0:0:0:0:
48,208,72363,6,0,B|56:152|56:152|96:96|168:84,1,180,2|8,0:0|0:0,0:0:0:0:
316,112,72869,1,0,0:0:0:0:
228,204,73037,1,0,0:0:0:0:
216,52,73206,1,0,0:0:0:0:
396,40,73374,1,8,0:0:0:0:
396,40,73711,6,0,L|424:136,1,90,2|0,0:0|0:0,0:0:0:0:
364,300,74049,2,0,L|336:204,1,90,8|0,0:0|0:0,0:0:0:0:
316,112,74386,2,0,P|268:136|244:176,1,90
212,296,74723,1,8,0:0:0:0:
80,328,74891,1,0,0:0:0:0:
48,180,75060,6,0,P|100:176|140:192,1,90,6|0,0:0|0:0,0:0:0:0:
276,156,75397,2,0,P|280:208|264:248,2,90,8|0|0,0:0|0:0|0:0,0:0:0:0:
188,44,75902,1,0,0:0:0:0:
136,189,76071,1,8,0:0:0:0:
296,52,76240,1,0,0:0:0:0:
404,132,76408,6,0,P|404:176|388:224,1,90,2|0,0:0|0:0,0:0:0:0:
300,332,76745,1,8,0:0:0:0:
312,168,76914,1,0,0:0:0:0:
408,320,77082,1,0,0:0:0:0:
244,248,77251,1,0,0:0:0:0:
420,212,77419,1,8,0:0:0:0:
300,332,77588,6,0,P|240:340|196:336,1,90,0|6,0:0|0:0,0:0:0:0:
64,236,77925,2,0,P|124:228|168:232,1,90,0|8,0:0|0:0,0:0:0:0:
244,248,78262,2,0,L|256:304,2,45,0|0|8,0:0|0:0|0:0,0:0:0:0:
32,92,78599,2,0,L|52:132,1,45,8|8,0:0|0:0,0:0:0:0:
128,208,78768,2,0,L|142:164,1,45,8|8,0:0|0:0,0:0:0:0:
172,68,78936,2,0,L|123:63,1,45,8|8,0:0|0:0,0:0:0:0:
225,138,79105,6,0,P|321:186|393:174,1,180,4|8,0:0|0:0,0:0:0:0:
432,40,79779,2,0,P|388:44|344:68,2,90,2|0|8,0:0|0:0|0:0,0:0:0:0:
389,175,80285,1,0,0:0:0:0:
389,175,80369,1,0,0:0:0:0:
389,175,80453,6,0,P|380:240|368:276,1,90,2|0,0:0|0:0,0:0:0:0:
240,356,80790,2,0,P|249:291|261:255,1,90,8|0,0:0|0:0,0:0:0:0:
268,144,81127,2,0,P|260:96|244:52,1,90,2|0,0:0|0:0,0:0:0:0:
136,200,81464,1,8,0:0:0:0:
40,68,81633,1,0,0:0:0:0:
40,68,81717,1,0,0:0:0:0:
40,68,81801,5,2,0:0:0:0:
20,212,81970,1,0,0:0:0:0:
140,98,82138,2,0,P|216:50|304:50,1,180,8|0,0:0|0:0,0:0:0:0:
388,124,82644,1,0,0:0:0:0:
268,144,82813,1,8,0:0:0:0:
396,16,82981,1,0,0:0:0:0:
388,124,83150,5,0,0:0:0:0:
388,124,83234,1,0,0:0:0:0:
388,124,83318,2,0,L|394:168,2,45,8|8|8,0:0|0:0|0:0,0:0:0:0:
312,236,83655,1,0,0:0:0:0:
456,312,83824,5,2,0:0:0:0:
132,292,84161,5,2,0:0:0:0:
276,44,84498,5,4,0:0:0:0:
256,192,84667,12,0,88543,0:0:0:0:
