osu file format v9

[General]
AudioFilename: 10 Pray - Tommy Heavenly6.mp3
AudioLeadIn: 0
PreviewTime: 22601
Countdown: 2
SampleSet: Normal
StackLeniency: 0.7
Mode: 0
LetterboxInBreaks: 1

[Editor]
DistanceSpacing: 0.8
BeatDivisor: 8
GridSize: 16

[Metadata]
Title:Pray
Artist:Tommy heavenly6
Creator:Riik
Version:Easy
Source:Gintama
Tags:Gintama Tommy Heavenly 6 Pray Full Version Video

[Difficulty]
HPDrainRate:3
CircleSize:3
OverallDifficulty:2
ApproachRate:2
SliderMultiplier:0.5
SliderTickRate:0.5

[Events]
//Background and Video events
Video,-1442,"th6.wmv"
0,0,"gin.png"
//Break Periods
2,90216,99580
//Storyboard Layer 0 (Background)
//Storyboard Layer 1 (Fail)
//Storyboard Layer 2 (Pass)
//Storyboard Layer 3 (Foreground)
//Storyboard Sound Samples
//Background Colour Transformations
3,100,163,162,255

[TimingPoints]
6421.53146261327,337.078651685393,4,1,0,60,1,0
65736,-100,4,1,0,90,0,1
91353,-100,4,2,0,100,0,0
100791,-50,4,2,0,70,0,0
143936,-100,4,1,0,90,0,1

[Colours]
Combo1 : 255,255,255
Combo2 : 30,30,30
Combo3 : 128,0,0
Combo4 : 255,0,0

[HitObjects]
256,192,22938,1,0
256,96,23612,1,0
160,96,24286,1,0
160,192,24960,1,0
160,288,25635,6,2,B|320:288,2,150
64,288,28331,5,8
64,192,29005,1,8
64,96,29679,1,8
128,96,30017,2,8,B|128:48,1,50
224,96,31028,5,0
224,96,31365,1,0
224,96,31702,1,0
288,96,32039,2,6,B|288:296,1,200
304,352,33724,6,0,B|4:352,1,300
0,272,36084,2,0,B|350:272,1,350
256,192,39118,6,0,B|336:80|432:96|448:192|432:256,1,300
352,320,41814,2,2,B|240:368|112:352|176:208,1,300
221,165,44174,1,10
320,192,45185,1,8
320,192,45522,1,8
320,192,45859,1,8
416,192,46533,5,8
416,192,46870,1,8
416,192,47208,1,8
416,96,47882,2,0,B|256:96,1,150
208,96,49230,1,8
208,96,49567,1,8
208,96,49904,1,8
208,192,50578,1,8
208,192,50915,1,8
208,192,51252,1,8
208,288,51927,1,8
208,288,52264,1,8
208,288,52601,1,8
256,192,53275,12,0,54623
48,320,56309,6,2,B|48:160,1,150
128,176,57657,2,0,B|288:176,2,150
64,176,60017,1,8
144,176,60354,2,8,B|304:176,2,150
304,80,63050,6,0,B|464:80|464:80|464:272,1,350
384,272,65747,5,4
160,192,67095,5,4
160,256,67432,1,8
160,256,67769,1,8
160,256,68106,1,8
240,256,68444,2,0,B|368:256|368:256|368:176|368:176|240:64|240:64|208:64,1,400
224,160,71814,5,4
128,160,72488,1,4
32,160,73163,1,4
32,256,73837,1,4
128,256,74511,5,0
192,256,74848,1,0
256,256,75185,1,0
320,256,75522,1,0
320,192,75859,2,2,B|272:192,1,50
272,128,76533,5,4
176,128,77208,1,0
192,192,77545,1,0
240,240,77882,1,0
336,224,78556,1,0
352,160,78893,1,8
304,112,79230,1,0
112,192,80241,5,0
112,192,80578,1,8
208,192,81252,1,8
208,192,81927,1,4
480,192,82938,1,8
480,192,83275,1,8
464,192,84623,6,2,B|448:128|416:96|368:80|304:64|272:96|224:128|208:192|240:256,1,400
368,272,87994,2,2,B|336:192|224:144|176:160|128:224,1,300
160,192,101140,5,2
240,192,101477,1,2
320,192,101814,1,2
320,272,102151,2,2,B|64:272|32:224|32:176|48:96,1,400
128,64,103837,5,2
128,144,104174,1,2
128,224,104511,1,2
128,304,104848,2,2,B|432:304,1,300
432,256,106028,1,4
432,160,106533,5,8
432,80,106870,1,8
352,80,107208,1,8
272,80,107545,1,8
272,160,107882,1,2
192,160,108219,1,2
192,80,108556,1,2
80,80,109230,5,2
80,160,109567,1,2
80,240,109904,1,2
160,240,110241,1,10
240,240,110578,1,10
320,240,110915,1,0
320,160,111252,1,4
240,160,111590,1,2
176,96,111927,2,2,B|96:112|64:208|80:304|144:368|240:384|320:368|384:368|416:368|496:272|496:192,1,700
416,192,114623,2,2,B|416:112|288:48|192:32|112:80|80:176|80:256|144:320|336:336,1,700
416,336,117320,6,0,B|416:80|416:80|304:80,2,350
336,336,120017,2,8,B|336:144|336:160|288:144|224:144|224:144|224:112,2,300
416,336,122376,1,8
416,256,122713,1,8
416,176,123050,1,8
368,96,123387,1,8
288,96,123724,1,8
224,160,124061,1,8
224,240,124399,1,0
288,304,124736,1,0
352,240,125073,1,8
352,160,125410,1,8
320,80,125747,1,8
240,112,126084,2,0,B|176:160|160:256|224:304|288:336|400:352|432:352,1,400
432,272,127769,5,0
400,192,128106,1,0
336,128,128444,1,0
288,64,128781,1,0
224,128,129118,1,0
160,192,129455,1,0
224,256,129792,1,0
304,256,130129,1,0
384,240,130466,1,0
464,240,130803,1,0
464,128,131477,2,0,B|272:128|144:352,1,400
240,336,133163,5,8
320,336,133500,1,8
400,336,133837,1,8
480,336,134174,1,8
480,256,134511,1,8
480,176,134848,1,8
400,176,135185,1,8
320,176,135522,1,8
240,176,135859,2,8,B|240:64,2,100
160,192,136870,2,8,B|160:304,2,100
320,304,138556,5,8
400,304,138893,1,8
480,304,139230,1,8
480,224,139567,1,8
480,144,139904,1,8
400,144,140241,1,8
320,144,140578,1,8
240,144,140915,1,8
160,208,141252,2,8,B|160:0|160:0|48:208,1,400
64,272,143275,1,8
144,272,143612,1,8
224,272,143949,5,4
256,192,144960,5,4
256,192,145297,1,4
256,192,146646,1,4
256,192,149342,1,4
160,176,147320,2,2,B|272:64|368:192|368:208|304:288|160:240,1,400
256,96,150017,5,4
336,96,150354,1,8
336,176,150691,1,8
336,256,151028,1,0
256,256,151365,1,0
256,176,151702,1,0
176,176,152039,1,4
176,288,152713,5,4
256,288,153050,1,8
256,208,153387,1,8
336,208,153724,1,8
416,208,154061,1,0
416,128,154399,1,8
416,48,154736,1,6
336,48,155073,5,8
256,48,155410,1,8
256,128,155747,1,8
176,128,156084,1,8
176,208,156421,1,0
176,288,156758,1,0
256,288,157095,1,4
336,288,157432,1,8
336,208,157769,1,4
128,192,160466,1,8
128,272,160803,1,8
128,352,161140,1,8
464,336,158781,6,4,B|128:96,1,400
256,192,161477,12,8,164848
256,144,165522,5,8
176,192,165859,1,8
256,256,166196,1,8
336,192,166533,1,8
416,192,166870,5,2
416,272,167208,1,2
352,336,167545,6,2,B|192:192,1,200
