osu file format v5

[General]
AudioFilename: PAPERMOON.mp3
AudioLeadIn: 0
PreviewTime: -1
Countdown: 1
SampleSet: Normal
StackLeniency: 0.7
Mode: 0
LetterboxInBreaks: 1

[Metadata]
Title:PAPERMOON
Artist:Tommy heavenly6
Creator:wwwwiq
Version:Normal
Source:
Tags:

[Difficulty]
HPDrainRate:5
CircleSize:5
OverallDifficulty:5
SliderMultiplier:1.4
SliderTickRate:3

[Events]
//Background and Video events
0,0,"soul-eater.jpg"
//Break Periods
//Storyboard Layer 0 (Background)
//Storyboard Layer 1 (Failing)
//Storyboard Layer 2 (Passing)
//Storyboard Layer 3 (Foreground)
//Storyboard Sound Samples
//Background Colour Transformations
3,100,163,162,255

[TimingPoints]
6896.03797468354,759.493670886076,4,1,0,100,1

[HitObjects]
279,42,14490,6,0,B|259:393|260:331|550:329|565:325|-39:100,1,840
406,176,23604,1,0
164,270,24364,1,0
304,111,25123,1,0
206,125,26642,1,0
206,125,27402,1,0
253,232,28161,1,0
290,121,28921,1,0
108,253,29680,1,0
282,173,30440,1,0
151,213,31199,1,0
297,122,31959,1,0
376,137,32718,1,0
227,201,33478,1,0
120,202,34237,1,0
113,123,34997,2,0,B|453:300|272:338|204:333|151:321|-46:160,1,560
59,207,38794,1,0
217,143,40313,5,0
298,307,41073,1,0
313,161,42592,1,0
224,172,44111,1,0
296,166,44870,1,0
356,161,45630,1,0
148,37,47149,6,0,B|264:80|246:352|566:23|205:241|96:283|139:217|-38:162,1,560
178,187,52465,1,0
307,266,53225,1,0
177,86,53984,1,0
335,243,54744,1,0
219,128,55503,1,0
56,212,57022,1,0
276,99,57782,1,0
172,213,58541,1,0
286,201,60060,1,0
271,142,60820,1,0
179,134,61579,1,0
112,121,62339,2,0,B|261:91|358:136|362:255|298:313|230:342|216:331|108:363|37:335|32:244|33:182|28:146|-27:149,1,700
233,140,67655,5,0
113,131,68415,1,0
355,183,69174,1,0
44,138,69934,2,0,B|355:140|366:147|-43:149,2,420
183,207,77528,1,0
222,349,78288,1,0
113,137,79047,1,0
256,32,90693,6,0,B|256:320|-32:160,3,420
128,128,102465,5,0
224,128,102718,1,0
320,128,103351,1,0
352,160,103478,1,0
96,128,105503,1,0
128,192,105756,1,0
256,128,106389,1,0
384,192,106642,1,0
256,256,107402,1,0
128,160,107782,1,0
64,256,108035,1,0
128,256,108415,1,0
224,192,108794,1,0
320,192,109807,1,0
192,256,110060,1,0
96,128,111073,1,0
256,192,111453,1,0
64,192,114111,6,0,B|320:192|544:32|256:192|0:160,1,630
64,160,119934,1,0
192,160,120187,1,0
320,160,121326,1,0
448,160,121706,1,0
256,64,122845,1,0
192,192,123225,1,0
352,192,124237,1,0
256,288,124617,1,0
256,96,125503,1,0
64,192,126389,2,0,B|416:192|-32:160,2,396.666666666667
288,160,133351,5,0
128,288,133604,1,0
96,160,133984,1,0
224,256,134490,1,0
352,128,134870,1,0
128,192,136009,2,0,B|416:224|-32:160,1,373.333333333333
320,128,139427,5,0
96,256,139807,1,0
96,96,140060,1,0
224,192,140440,1,0
288,288,140693,1,0
384,96,142085,1,0
352,128,142212,1,0
96,128,143478,1,0
192,192,143604,1,0
320,128,144744,1,0
320,128,144997,1,0
192,192,146389,1,0
192,192,146642,1,0
192,192,147022,1,0
192,192,147275,1,0
192,192,147655,1,0
320,128,148035,1,0
96,192,149680,1,0
160,256,150060,1,0
256,128,150313,1,0
160,160,150693,1,0
256,256,150946,1,0
320,192,151579,1,0
320,192,151706,1,0
320,192,152085,1,0
320,192,152465,1,0
160,192,153731,2,0,B|448:192|-32:224,2,396.666666666667
192,96,162845,5,0
320,96,163478,1,0
288,224,163984,1,0
96,256,164364,1,0
96,128,165377,1,0
192,224,165756,1,0
352,224,166389,1,0
288,128,166896,1,0
160,288,167402,1,0
160,160,167908,1,0
256,256,168415,1,0
384,288,168668,1,0
384,128,169301,1,0
192,160,169934,1,0
160,224,170187,1,0
96,128,171199,1,0
256,160,171579,1,0
256,224,172212,1,0
160,160,173098,2,0,B|448:160|-32:160,1,396.666666666667
192,256,175756,1,0
224,96,176136,1,0
96,96,176769,1,0
256,192,177275,1,0
320,224,177528,1,0
224,224,178035,1,0
160,192,178541,1,0
192,96,179047,1,0
256,192,181579,12,0,184617
224,128,187908,5,0
256,192,188161,1,0
384,128,188415,1,0
384,96,188794,1,0
224,96,189047,1,0
192,224,189427,1,0
0,192,189807,1,0
128,160,190187,1,0
192,64,190566,1,0
224,160,191706,1,0
288,192,192085,1,0
224,224,192465,1,0
160,192,192718,1,0
160,128,193098,1,0
224,96,193478,1,0
288,128,194617,1,0
384,160,194870,1,0
448,160,195250,1,0
448,96,195630,1,0
416,96,196009,1,0
352,96,196389,1,0
320,128,197528,1,0
288,160,197908,1,0
224,128,198541,1,0
192,128,199174,1,0
192,192,199427,1,0
288,192,199807,1,0
288,128,200060,1,0
224,96,200440,1,0
192,192,200820,1,0
256,192,201199,1,0
224,160,201453,1,0
256,160,201832,1,0
288,192,202212,1,0
192,224,203478,1,0
224,160,203731,1,0
224,192,204744,1,0
288,192,205123,1,0
288,128,206263,1,0
224,128,206642,1,0
192,128,207908,1,0
192,64,208288,1,0
256,64,208668,1,0
256,128,209047,1,0
320,128,209554,1,0
320,160,210313,1,0
96,192,211453,1,0
160,192,211706,1,0
256,160,212085,1,0
352,128,213225,5,0
128,224,213604,1,0
128,128,213984,1,0
192,192,214997,1,0
352,128,215756,5,0
96,160,216136,1,0
160,288,216389,1,0
288,224,216769,1,0
384,64,218035,5,0
160,160,218288,1,0
224,256,218668,1,0
320,192,219047,1,0
224,64,219427,1,0
416,160,219807,1,0
352,128,220946,5,0
160,224,221326,1,0
128,96,221959,1,0
256,192,222592,1,0
384,96,223351,5,0
320,128,223478,1,0
192,192,223858,1,0
160,128,224237,1,0
192,64,224490,1,0
256,96,224870,1,0
256,96,225250,1,0
256,96,225630,1,0
64,160,227022,2,0,B|288:352|-32:160,1,326.666666666667
256,160,230187,1,0
288,160,231579,5,0
192,224,231832,1,0
96,128,232212,1,0
160,96,232592,1,0
288,128,232971,1,0
128,224,234744,1,0
128,224,235123,1,0
224,192,235883,1,0
256,128,236516,1,0
320,160,236769,1,0
384,224,237149,1,0
256,320,237402,1,0
160,160,238668,1,0
288,160,238921,1,0
384,160,239174,1,0
416,64,239680,1,0
128,64,240313,1,0
160,128,241326,2,0,B|192:352|-32:128,1,303.333333333333
