osu file format v12

[General]
AudioFilename: Soul Eater- Papermoon.MP3
AudioLeadIn: 1000
PreviewTime: 670
Countdown: 0
SampleSet: Normal
StackLeniency: 0.7
Mode: 2
LetterboxInBreaks: 0
WidescreenStoryboard: 0

[Editor]
DistanceSpacing: 1
BeatDivisor: 4
GridSize: 4
TimelineZoom: 2

[Metadata]
Title:PAPERMOON (TV Size)
TitleUnicode:PAPERMOON (TV Size)
Artist:Tommy heavenly6
ArtistUnicode:Tommy heavenly⁶
Creator:[Yue]
Version:Salad
Source:Soul Eater
Tags:Kawase Tomoko ソウルイーター 大久保 篤 Atsushi Ohkubo Opening Bakemono Shinigami Maka Black Star Death the Kid Crona Cloudchaser Stefan mingmichael NaxelCL Skalim DakeDekaane Natsu Weezy
BeatmapID:377070
BeatmapSetID:153396

[Difficulty]
HPDrainRate:4
CircleSize:2
OverallDifficulty:6
ApproachRate:6
SliderMultiplier:1.3
SliderTickRate:2

[Events]
//Background and Video events
0,0,"BG_CtB.png",0,0
Video,0,"Papermoon.avi"
//Break Periods
//Storyboard Layer 0 (Background)
//Storyboard Layer 1 (Fail)
//Storyboard Layer 2 (Pass)
//Storyboard Layer 3 (Foreground)
//Storyboard Sound Samples
//Background Colour Transformations
3,100,163,162,255

[TimingPoints]
670,365.853658536585,4,1,1,60,1,0
3413,-100,4,1,1,65,0,0
14938,-100,4,1,1,65,0,0
38718,-100,4,1,1,65,0,0
50426,-100,4,1,1,70,0,1
61950,-100,4,1,1,70,0,0
62133,-100,4,1,1,70,0,1
73840,-100,4,1,1,70,0,0
88291,-100,4,1,1,65,0,0
88474,-100,4,1,1,55,0,0
88657,-100,4,1,1,45,0,0
88840,-100,4,1,1,35,0,0
89023,-100,4,1,1,25,0,0
89206,-100,4,1,1,15,0,0

[Colours]
Combo1 : 2,208,105
Combo2 : 228,20,176
Combo3 : 253,208,74
Combo4 : 157,60,255

[HitObjects]
128,192,670,5,4,0:0:0:0:
320,192,1035,1,8,0:0:0:0:
448,288,1401,2,0,L|312:288,1,130,0|8,0:0|0:0,0:0:0:0:
128,96,2133,2,0,L|260:96,1,130,0|8,0:0|0:0,0:0:0:0:
32,224,2865,1,0,0:0:0:0:
160,224,3048,1,0,0:0:0:0:
288,224,3230,1,8,0:0:0:0:
416,128,3413,6,0,P|352:64|256:96,1,195,0|8,0:0|0:0,0:0:0:0:
160,288,4328,2,0,P|224:288|288:224,1,130,0|8,0:0|0:0,0:0:0:0:
32,192,5060,2,0,L|192:192,1,130,0|8,0:0|0:0,0:0:0:0:
320,160,5791,2,0,L|384:160,2,65,0|0|8,0:0|0:0|0:0,0:0:0:0:
192,160,6340,6,0,B|96:192|96:192|192:256,1,195,4|8,0:0|0:0,0:0:0:0:
448,320,7255,2,0,P|352:288|320:256,1,130,0|8,0:0|0:0,0:0:0:0:
128,224,7987,1,0,0:0:0:0:
352,224,8352,1,8,0:0:0:0:
192,224,8718,5,0,0:0:0:0:
288,224,8901,1,0,0:0:0:0:
384,224,9084,1,0,0:0:0:0:
288,128,9267,1,4,0:0:0:0:
192,96,9816,6,0,L|336:96,2,130,8|0|8,0:0|0:0|0:0,0:0:0:0:
384,192,10913,2,0,L|240:192,2,130,0|8|0,0:0|0:0|0:0,0:0:0:0:
256,224,11828,1,0,0:0:0:0:
128,304,12011,2,0,L|192:304,1,65,8|4,0:0|0:0,0:0:0:0:
416,288,12743,1,8,0:0:0:0:
256,224,13109,1,0,0:0:0:0:
64,192,13474,6,0,L|224:192,1,130,8|0,0:0|0:0,0:0:0:0:
320,128,14023,1,0,0:0:0:0:
416,128,14206,2,0,L|480:128,1,65,8|0,0:0|0:0,0:0:0:0:
352,224,14572,2,0,L|288:224,1,65,0|0,0:0|0:0,0:0:0:0:
448,224,14938,1,8,0:0:0:0:
352,320,15304,6,0,L|64:320,1,260,0|0,0:0|0:0,0:0:0:0:
160,224,16401,1,0,0:0:0:0:
96,128,16767,2,0,L|256:128,2,130,0|8|0,0:0|0:0|0:0,0:0:0:0:
64,224,17865,1,0,0:0:0:0:
288,224,18230,2,0,P|192:320|96:256,1,260,4|0,0:0|0:0,0:0:0:0:
320,128,19328,6,0,L|160:128,1,130,0|0,0:0|0:0,0:0:0:0:
416,224,20060,1,8,0:0:0:0:
256,256,20426,2,0,B|288:320|288:320|352:320,1,130,0|0,0:0|0:0,0:0:0:0:
288,128,21157,6,0,L|0:128,1,260,4|0,0:0|0:0,0:0:0:0:
128,224,22255,2,0,L|288:224,1,130,0|0,0:0|0:0,0:0:0:0:
384,192,22987,2,0,L|384:32,1,130,8|0,0:0|0:0,0:0:0:0:
256,56,23535,1,0,0:0:0:0:
128,96,23718,6,0,L|192:96,1,65,0|0,0:0|0:0,0:0:0:0:
385,96,24084,2,0,L|320:96,1,65,4|0,0:0|0:0,0:0:0:0:
256,160,24450,2,0,L|256:224,1,65,8|0,0:0|0:0,0:0:0:0:
384,320,24816,2,0,P|256:320|192:192,1,260,0|0,0:0|0:0,0:0:0:0:
48,160,25730,5,0,0:0:0:0:
112,160,25822,1,0,0:0:0:0:
176,160,25913,1,8,0:0:0:0:
304,160,26096,1,0,0:0:0:0:
224,272,26279,6,0,P|368:256|416:160,1,260,0|4,0:0|0:0,0:0:0:0:
208,96,27377,2,0,L|352:96,2,130,8|0|0,0:0|0:0|0:0,0:0:0:0:
480,192,28474,1,0,0:0:0:0:
192,192,28840,1,8,0:0:0:0:
336,192,29206,2,0,L|336:352,1,130,0|0,0:0|0:0,0:0:0:0:
128,304,29938,6,0,L|400:304,1,260,4|0,0:0|0:0,0:0:0:0:
256,208,31035,1,0,0:0:0:0:
32,176,31401,1,0,0:0:0:0:
256,128,31767,1,8,0:0:0:0:
480,128,32133,1,0,0:0:0:0:
192,80,32499,6,0,L|336:80,2,130,0|4|8,0:0|0:0|0:0,0:0:0:0:
416,80,33596,2,0,L|320:192,2,130,0|0|0,0:0|0:0|0:0,0:0:0:0:
160,192,34694,1,8,0:0:0:0:
320,192,35060,6,0,P|304:304|176:336,1,260,0|0,0:0|0:0,0:0:0:0:
432,304,36157,1,8,0:0:0:0:
256,272,36523,2,0,L|320:272,2,65,0|0|0,0:0|0:0|0:0,0:0:0:0:
112,208,37255,6,0,L|48:208,2,65,0|0|8,0:0|0:0|0:0,0:0:0:0:
368,160,37987,2,0,B|432:112|432:112|496:112,2,130,0|0|4,0:0|0:0|0:0,0:0:0:0:
64,192,39084,6,0,L|208:192,1,130,8|0,0:0|0:0,0:0:0:0:
432,208,39816,1,8,0:0:0:0:
256,304,40182,2,0,B|128:304|128:304|64:240|128:192,2,260,0|0|4,0:0|0:0|0:0,0:0:0:0:
192,176,42011,5,8,0:0:0:0:
464,176,42377,1,0,0:0:0:0:
336,176,42743,2,0,L|400:176,2,65,8|4|0,0:0|0:0|0:0,0:0:0:0:
128,256,43474,2,0,L|272:256,1,130,8|0,0:0|0:0,0:0:0:0:
32,176,44206,5,0,0:0:0:0:
256,176,44572,1,4,0:0:0:0:
32,96,44938,2,0,L|128:192,1,130,8|0,0:0|0:0,0:0:0:0:
352,80,45669,2,0,L|448:176,1,130,8|0,0:0|0:0,0:0:0:0:
176,96,46401,1,8,0:0:0:0:
192,256,46767,6,0,L|336:256,2,130,0|8|4,0:0|0:0|0:0,0:0:0:0:
448,176,47865,2,0,L|336:256,1,130,8|0,0:0|0:0,0:0:0:0:
80,160,48596,1,8,0:0:0:0:
304,160,48962,1,0,0:0:0:0:
16,128,49328,2,0,L|160:128,1,130,8|0,0:0|0:0,0:0:0:0:
240,128,49877,5,0,0:0:0:0:
368,128,50060,1,0,0:0:0:0:
256,208,50243,1,0,0:0:0:0:
352,208,50426,6,0,L|208:208,1,130,4|8,0:0|0:0,0:0:0:0:
32,304,50974,2,0,L|192:304,1,130,0|0,0:0|0:0,0:0:0:0:
416,272,51706,1,4,0:0:0:0:
224,256,52072,2,0,P|240:192|304:160,1,130,0|0,0:0|0:0,0:0:0:0:
160,112,52804,2,0,L|48:208,1,130,0|0,0:0|0:0,0:0:0:0:
288,112,53535,5,0,0:0:0:0:
384,112,53718,1,8,0:0:0:0:
480,112,53901,1,0,0:0:0:0:
240,192,54267,6,0,L|384:192,2,130,0|4|0,0:0|0:0|0:0,0:0:0:0:
416,240,55365,2,0,P|416:302|363:334,2,130,0|0|0,0:0|0:0|0:0,0:0:0:0:
256,256,56279,1,4,0:0:0:0:
400,160,56645,2,0,P|288:64|240:192,1,325,8|4,0:0|0:0,0:0:0:0:
352,64,57926,6,0,L|496:64,1,130,0|0,0:0|0:0,0:0:0:0:
192,64,58657,1,0,0:0:0:0:
64,160,59023,1,0,0:0:0:0:
368,160,59389,2,0,L|224:160,1,130,0|0,0:0|0:0,0:0:0:0:
416,160,60121,5,0,0:0:0:0:
192,256,60487,2,0,L|464:256,1,260,4|0,0:0|0:0,0:0:0:0:
240,160,61584,1,0,0:0:0:0:
128,160,61767,1,8,0:0:0:0:
240,160,61950,1,0,0:0:0:0:
352,80,62133,6,0,L|480:240,1,195,4|0,0:0|0:0,0:0:0:0:
320,304,63048,1,0,0:0:0:0:
80,288,63413,2,0,L|224:240,1,130,4|0,0:0|0:0,0:0:0:0:
384,144,64145,6,0,L|224:144,1,130,0|0,0:0|0:0,0:0:0:0:
64,128,64877,1,0,0:0:0:0:
240,128,65060,1,4,0:0:0:0:
152,224,65243,2,0,L|-8:224,1,130,0|0,0:0|0:0,0:0:0:0:
288,112,65974,5,0,0:0:0:0:
480,160,66340,2,0,L|256:304,1,260,4|0,0:0|0:0,0:0:0:0:
64,160,67438,6,0,L|192:128,1,130,0|0,0:0|0:0,0:0:0:0:
320,160,67987,2,0,P|384:192|432:160,1,130,4|8,0:0|0:0,0:0:0:0:
224,288,68535,2,0,L|80:288,1,130,0|0,0:0|0:0,0:0:0:0:
208,208,69084,5,8,0:0:0:0:
304,208,69267,1,4,0:0:0:0:
112,208,69633,2,0,B|48:208|48:208|0:160,1,130,0|0,0:0|0:0,0:0:0:0:
160,224,70365,5,0,0:0:0:0:
352,224,70730,1,0,0:0:0:0:
112,160,71096,1,0,0:0:0:0:
400,160,71462,1,0,0:0:0:0:
192,336,71828,2,0,L|16:288,2,130,0|4|0,0:0|0:0|0:0,0:0:0:0:
48,240,72926,6,0,L|48:160,1,65,0|0,0:0|0:0,0:0:0:0:
144,144,73291,2,0,L|192:96,1,65,0|8,0:0|0:0,0:0:0:0:
288,128,73657,2,0,L|352:160,1,65,0|4,0:0|0:0,0:0:0:0:
208,224,74206,5,8,0:0:0:0:
352,320,74572,2,0,L|208:320,2,130,0|8|4,0:0|0:0|0:0,0:0:0:0:
128,192,75669,1,8,0:0:0:0:
284,64,75852,2,0,P|416:96|436:224,1,260
280,168,76767,2,0,P|248:224|280:280,1,130,8|0,0:0|0:0,0:0:0:0:
96,320,77499,6,0,L|48:240,1,65,0|0,0:0|0:0,0:0:0:0:
144,208,77865,2,0,L|224:192,1,65,8|0,0:0|0:0,0:0:0:0:
176,112,78230,2,0,L|320:112,1,130,0|8,0:0|0:0,0:0:0:0:
432,224,78962,2,0,L|288:240,1,130,0|8,0:0|0:0,0:0:0:0:
192,80,79511,6,0,P|160:192|272:240,1,260,4|0,0:0|0:0,0:0:0:0:
432,112,80426,1,0,0:0:0:0:
416,304,80791,2,0,L|240:320,1,130,8|0,0:0|0:0,0:0:0:0:
112,256,81523,1,8,0:0:0:0:
192,144,81889,6,0,L|272:144,2,65,0|0|8,0:0|0:0|0:0,0:0:0:0:
240,256,82438,2,0,L|16:128,1,195,4|8,0:0|0:0,0:0:0:0:
304,96,83352,1,0,0:0:0:0:
432,176,83718,2,0,P|464:224|448:304,1,130,8|0,0:0|0:0,0:0:0:0:
240,304,84450,5,8,0:0:0:0:
64,192,84816,2,0,L|224:176,1,130,0|8,0:0|0:0,0:0:0:0:
224,256,85365,2,0,L|448:256,1,195,4|8,0:0|0:0,0:0:0:0:
400,176,86279,1,0,0:0:0:0:
112,128,86645,2,0,L|288:128,1,130,8|0,0:0|0:0,0:0:0:0:
160,240,87377,6,0,L|160:304,1,65,8|0,0:0|0:0,0:0:0:0:
304,288,87743,2,0,L|352:240,1,65,0|0,0:0|0:0,0:0:0:0:
496,272,88109,1,8,0:0:0:0:
256,192,88291,12,0,89389,0:0:0:0:
