osu file format v12

[General]
AudioFilename: Soul Eater- Papermoon.MP3
AudioLeadIn: 1000
PreviewTime: 670
Countdown: 0
SampleSet: Normal
StackLeniency: 0.7
Mode: 2
LetterboxInBreaks: 0
WidescreenStoryboard: 0

[Editor]
DistanceSpacing: 1
BeatDivisor: 4
GridSize: 4
TimelineZoom: 3.399999

[Metadata]
Title:PAPERMOON (TV Size)
TitleUnicode:PAPERMOON (TV Size)
Artist:Tommy heavenly6
ArtistUnicode:Tommy heavenly⁶
Creator:[Yue]
Version:Platter
Source:Soul Eater
Tags:Kawase Tomoko ソウルイーター 大久保 篤 Atsushi Ohkubo Opening Bakemono Shinigami Maka Black Star Death the Kid Crona Cloudchaser Stefan mingmichael NaxelCL Skalim DakeDekaane Natsu Weezy
BeatmapID:377068
BeatmapSetID:153396

[Difficulty]
HPDrainRate:6
CircleSize:3
OverallDifficulty:8
ApproachRate:8
SliderMultiplier:1.6
SliderTickRate:1

[Events]
//Background and Video events
0,0,"BG_CtB.png",0,0
Video,0,"Papermoon.avi"
//Break Periods
//Storyboard Layer 0 (Background)
//Storyboard Layer 1 (Fail)
//Storyboard Layer 2 (Pass)
//Storyboard Layer 3 (Foreground)
//Storyboard Sound Samples
//Background Colour Transformations
3,100,163,162,255

[TimingPoints]
670,365.853658536585,4,1,1,60,1,0
3413,-100,4,1,1,65,0,0
14938,-133.333333333333,4,1,1,65,0,0
38718,-100,4,1,1,65,0,0
50426,-83.3333333333333,4,1,1,70,0,1
61950,-100,4,1,1,70,0,0
62133,-83.3333333333333,4,1,1,70,0,1
73840,-100,4,1,1,70,0,0
88291,-100,4,1,1,65,0,0
88474,-100,4,1,1,55,0,0
88657,-100,4,1,1,45,0,0
88840,-100,4,1,1,35,0,0
89023,-100,4,1,1,25,0,0
89206,-100,4,1,1,15,0,0

[Colours]
Combo1 : 2,208,105
Combo2 : 228,20,176
Combo3 : 253,208,74
Combo4 : 157,60,255

[HitObjects]
320,320,670,6,0,L|416:320,2,80,4|0|8,0:0|0:0|0:0,0:0:0:0:
224,256,1218,1,0,0:0:0:0:
384,224,1401,2,0,L|288:224,2,80,0|0|8,0:0|0:0|0:0,0:0:0:0:
192,192,1950,1,0,0:0:0:0:
64,128,2133,2,0,L|160:128,2,80,0|0|8,0:0|0:0|0:0,0:0:0:0:
224,96,2682,1,0,0:0:0:0:
32,288,2865,2,0,B|32:352|32:352|72:352,2,80,0|0|8,0:0|0:0|0:0,0:0:0:0:
128,328,3322,1,0,0:0:0:0:
232,296,3413,6,0,L|392:296,1,160
328,208,3962,1,8,0:0:0:0:
136,208,4145,1,0,0:0:0:0:
232,80,4328,2,0,L|408:80,1,160,0|8,0:0|0:0,0:0:0:0:
160,256,5060,2,0,L|320:256,1,160,0|8,0:0|0:0,0:0:0:0:
448,96,5791,2,0,L|352:96,2,80,0|0|8,0:0|0:0|0:0,0:0:0:0:
96,224,6340,6,0,B|40:164|40:164|96:100,1,160,4|0,0:0|0:0,0:0:0:0:
296,168,6889,2,0,L|384:168,1,80,8|0,0:0|0:0,0:0:0:0:
216,168,7255,1,0,0:0:0:0:
448,256,7621,2,0,L|256:256,1,160,8|0,0:0|0:0,0:0:0:0:
32,192,8352,1,8,0:0:0:0:
160,192,8535,1,0,0:0:0:0:
320,192,8718,1,0,0:0:0:0:
160,112,8901,1,0,0:0:0:0:
24,112,9084,1,8,0:0:0:0:
272,296,9267,6,0,P|224:248|168:304,2,160,4|0|0,0:0|0:0|0:0,0:0:0:0:
64,192,10182,2,0,P|64:288|128:320,1,160,0|8,0:0|0:0,0:0:0:0:
256,224,10730,1,0,0:0:0:0:
448,192,10913,2,0,P|448:288|384:320,2,160,0|8|0,0:0|0:0|0:0,0:0:0:0:
128,128,11828,5,0,0:0:0:0:
48,128,12011,1,8,0:0:0:0:
208,128,12194,1,4,0:0:0:0:
416,352,12560,1,0,0:0:0:0:
256,224,12743,2,0,P|224:320|160:320,2,160,8|0|8,0:0|0:0|0:0,0:0:0:0:
96,128,13840,5,0,0:0:0:0:
224,128,14023,1,0,0:0:0:0:
352,128,14206,1,8,0:0:0:0:
224,224,14389,1,0,0:0:0:0:
352,224,14572,1,0,0:0:0:0:
480,224,14755,1,0,0:0:0:0:
352,320,14938,5,8,0:0:0:0:
96,320,15121,1,4,0:0:0:0:
0,224,15304,2,0,L|128:160,2,120.000004577637,0|8|0,0:0|0:0|0:0,0:0:0:0:
208,256,16218,1,0,0:0:0:0:
352,192,16401,2,0,L|288:192,1,60.0000022888184,0|0,0:0|0:0,0:0:0:0:
480,160,16767,6,0,P|480:224|416:256,1,120.000004577637,0|8,0:0|0:0,0:0:0:0:
320,256,17316,1,0,0:0:0:0:
96,256,17499,2,0,L|186:346,1,120.000004577637,0|0,0:0|0:0,0:0:0:0:
384,320,18048,1,0,0:0:0:0:
224,320,18230,5,4,0:0:0:0:
320,320,18413,1,0,0:0:0:0:
448,256,18596,2,0,L|320:256,2,120.000004577637,8|0|0,0:0|0:0|0:0,0:0:0:0:
64,192,19694,6,0,L|192:192,2,120.000004577637,0|8|0,0:0|0:0|0:0,0:0:0:0:
256,96,20791,1,0,0:0:0:0:
416,192,21157,2,0,L|352:192|416:192,1,120.000004577637,4|8,0:0|0:0,0:0:0:0:
224,256,21706,1,0,0:0:0:0:
64,192,21889,6,0,L|96:256,1,60.0000022888184,0|0,0:0|0:0,0:0:0:0:
288,160,22255,2,0,L|320:224,1,60.0000022888184,0|0,0:0|0:0,0:0:0:0:
480,160,22621,2,0,L|416:192,1,60.0000022888184,0|0,0:0|0:0,0:0:0:0:
256,320,22987,2,0,P|192:320|160:256,1,120.000004577637,8|0,0:0|0:0,0:0:0:0:
32,320,23535,5,8,0:0:0:0:
224,192,23718,2,0,L|96:192,1,120.000004577637,0|4,0:0|0:0,0:0:0:0:
384,192,24450,2,0,L|512:192,1,120.000004577637,8|0,0:0|0:0,0:0:0:0:
128,96,25182,2,0,L|0:96,1,120.000004577637,0|0,0:0|0:0,0:0:0:0:
224,96,25730,5,0,0:0:0:0:
272,96,25822,1,0,0:0:0:0:
320,96,25913,1,8,0:0:0:0:
448,96,26096,1,0,0:0:0:0:
256,224,26279,6,0,B|256:288|256:288|192:288,2,120.000004577637,0|0|4,0:0|0:0|0:0,0:0:0:0:
128,288,27194,1,0,0:0:0:0:
163,66,27377,2,0,P|108:87|64:128,1,120.000004577637,8|0,0:0|0:0,0:0:0:0:
256,192,27926,1,0,0:0:0:0:
448,256,28109,2,0,P|416:288|320:320,1,120.000004577637,0|0,0:0|0:0,0:0:0:0:
128,288,28840,5,8,0:0:0:0:
192,192,29023,2,0,L|128:192,2,60.0000022888184,0|0|8,0:0|0:0|0:0,0:0:0:0:
320,192,29572,1,0,0:0:0:0:
256,192,29755,1,0,0:0:0:0:
448,96,29938,2,0,L|320:96,2,120.000004577637,4|8|0,0:0|0:0|0:0,0:0:0:0:
32,96,31035,6,0,B|64:160|64:160|128:160,2,120.000004577637,0|0|8,0:0|0:0|0:0,0:0:0:0:
128,256,31950,1,0,0:0:0:0:
288,256,32133,2,0,L|224:256,1,60.0000022888184,0|8,0:0|0:0,0:0:0:0:
384,256,32499,2,0,L|448:256|384:256,1,120.000004577637,0|4,0:0|0:0,0:0:0:0:
256,192,33048,5,0,0:0:0:0:
64,160,33230,2,0,L|192:160,1,120.000004577637,8|0,0:0|0:0,0:0:0:0:
32,96,33779,1,0,0:0:0:0:
160,64,33962,2,0,L|224:64,1,60.0000022888184,0|0,0:0|0:0,0:0:0:0:
352,64,34328,5,0,0:0:0:0:
224,256,34511,1,0,0:0:0:0:
32,256,34694,2,0,L|160:256,1,120.000004577637,8|0,0:0|0:0,0:0:0:0:
304,256,35243,1,0,0:0:0:0:
448,320,35426,6,0,P|416:320|384:352,1,60.0000022888184,0|0,0:0|0:0,0:0:0:0:
192,320,35791,2,0,P|221:319|246:335,1,60.0000022888184,0|0,0:0|0:0,0:0:0:0:
384,224,36157,2,0,P|416:224|448:192,1,60.0000022888184,8|0,0:0|0:0,0:0:0:0:
224,224,36523,2,0,P|192:224|160:192,1,60.0000022888184,0|0,0:0|0:0,0:0:0:0:
352,160,36889,5,0,0:0:0:0:
192,160,37072,1,0,0:0:0:0:
288,128,37255,1,0,0:0:0:0:
128,128,37438,1,0,0:0:0:0:
320,64,37621,2,0,L|448:64,1,120.000004577637,8|0,0:0|0:0,0:0:0:0:
192,64,38169,6,0,L|128:64,1,60.0000022888184,0|0,0:0|0:0,0:0:0:0:
256,64,38444,2,0,L|256:128,1,60.0000022888184,0|0,0:0|0:0,0:0:0:0:
160,128,38718,1,4,0:0:0:0:
320,192,38901,5,0,0:0:0:0:
224,256,39084,2,0,L|320:256,1,80,8|0,0:0|0:0,0:0:0:0:
192,320,39450,2,0,L|96:320,1,80,0|0,0:0|0:0,0:0:0:0:
288,320,39816,1,8,0:0:0:0:
384,320,39999,1,4,0:0:0:0:
160,224,40182,6,0,B|96:192|96:192|96:128|96:128|128:128,2,160,0|8|0,0:0|0:0|0:0,0:0:0:0:
416,224,41279,2,0,L|256:224,1,160,8|4,0:0|0:0,0:0:0:0:
288,128,41828,1,0,0:0:0:0:
160,128,42011,1,8,0:0:0:0:
352,64,42194,1,0,0:0:0:0:
192,64,42377,1,0,0:0:0:0:
32,64,42560,5,0,0:0:0:0:
128,224,42743,2,0,L|224:288,2,80,8|4|0,0:0|0:0|0:0,0:0:0:0:
352,256,43291,1,0,0:0:0:0:
480,192,43474,6,0,L|384:192,2,80,8|0|0,0:0|0:0|0:0,0:0:0:0:
128,96,44023,2,0,P|160:160|256:160,1,160,0|0,0:0|0:0,0:0:0:0:
384,160,44572,1,4,0:0:0:0:
224,288,44755,2,0,L|128:288,1,80,0|8,0:0|0:0,0:0:0:0:
352,288,45121,1,0,0:0:0:0:
192,224,45304,6,0,L|96:224,1,80,0|0,0:0|0:0,0:0:0:0:
288,224,45669,2,0,L|448:224,1,160,8|0,0:0|0:0,0:0:0:0:
352,160,46218,1,0,0:0:0:0:
224,160,46401,2,0,L|128:160,1,80,8|0,0:0|0:0,0:0:0:0:
288,96,46767,2,0,L|384:96,1,80,0|0,0:0|0:0,0:0:0:0:
192,96,47133,6,0,L|96:96,1,80,8|0,0:0|0:0,0:0:0:0:
352,320,47499,2,0,P|300:268|352:217,2,160,4|8|0,0:0|0:0|0:0,0:0:0:0:
256,192,48413,1,0,0:0:0:0:
160,320,48596,2,0,L|46:206,1,160,8|0,0:0|0:0,0:0:0:0:
256,256,49145,1,0,0:0:0:0:
352,320,49328,2,0,L|465:206,1,160,8|0,0:0|0:0,0:0:0:0:
192,96,49877,6,0,L|128:96,2,40,0|0|0,0:0|0:0|0:0,0:0:0:0:
304,96,50151,1,0,0:0:0:0:
416,96,50243,2,0,L|464:96,2,40,0|0|4,0:0|0:0|0:0,0:0:0:0:
256,192,50609,5,0,0:0:0:0:
96,256,50791,2,0,L|192:256,1,95.9999970703126,8|0,0:0|0:0,0:0:0:0:
304,256,51157,1,0,0:0:0:0:
192,256,51340,1,0,0:0:0:0:
400,272,51523,2,0,B|384:176|384:176|288:176,1,191.999994140625,8|0,0:0|0:0,0:0:0:0:
192,192,52072,5,0,0:0:0:0:
48,160,52255,2,0,L|160:160,1,95.9999970703126,8|0,0:0|0:0,0:0:0:0:
288,160,52621,1,0,0:0:0:0:
96,240,52804,2,0,P|32:304|16:240,2,191.999994140625,0|0|0,0:0|0:0|0:0,0:0:0:0:
464,160,53718,2,0,L|336:160,1,95.9999970703126,8|0,0:0|0:0,0:0:0:0:
224,96,54084,2,0,L|352:96,1,95.9999970703126,0|0,0:0|0:0,0:0:0:0:
208,176,54450,6,0,L|96:176,1,95.9999970703126,8|4,0:0|0:0,0:0:0:0:
288,240,54816,1,0,0:0:0:0:
448,240,54999,1,0,0:0:0:0:
256,304,55182,1,8,0:0:0:0:
112,304,55365,2,0,L|176:224,1,95.9999970703126,0|0,0:0|0:0,0:0:0:0:
336,224,55730,2,0,L|400:304,2,95.9999970703126,0|8|0,0:0|0:0|0:0,0:0:0:0:
64,208,56279,2,0,L|240:112,1,191.999994140625,4|8,0:0|0:0,0:0:0:0:
32,128,57011,5,0,0:0:0:0:
160,176,57194,1,0,0:0:0:0:
304,160,57377,1,8,0:0:0:0:
192,240,57560,1,4,0:0:0:0:
352,256,57743,2,0,L|256:256,1,95.9999970703126,0|0,0:0|0:0,0:0:0:0:
128,272,58109,5,8,0:0:0:0:
240,192,58291,1,0,0:0:0:0:
336,96,58474,2,0,L|240:96,1,95.9999970703126,0|0,0:0|0:0,0:0:0:0:
112,96,58840,2,0,L|208:96,1,95.9999970703126,8|0,0:0|0:0,0:0:0:0:
48,192,59206,2,0,P|80:304|160:304,2,191.999994140625,4|8|0,0:0|0:0|0:0,0:0:0:0:
384,128,60304,5,8,0:0:0:0:
256,128,60487,1,4,0:0:0:0:
448,192,60669,2,0,L|448:288,1,95.9999970703126,0|0,0:0|0:0,0:0:0:0:
256,192,61035,2,0,L|256:304,1,95.9999970703126,8|0,0:0|0:0,0:0:0:0:
144,176,61310,1,0,0:0:0:0:
80,192,61401,6,0,L|80:304,1,95.9999970703126,0|0,0:0|0:0,0:0:0:0:
144,64,61676,1,0,0:0:0:0:
208,128,61767,2,0,L|112:128,1,95.9999970703126,8|0,0:0|0:0,0:0:0:0:
448,128,62133,6,0,L|256:128,1,191.999994140625,4|8,0:0|0:0,0:0:0:0:
368,224,62682,1,0,0:0:0:0:
192,304,62865,2,0,L|288:304,2,95.9999970703126,0|0|8,0:0|0:0|0:0,0:0:0:0:
448,208,63413,1,4,0:0:0:0:
256,144,63596,2,0,P|192:80|96:80,1,191.999994140625,0|8,0:0|0:0,0:0:0:0:
192,176,64145,5,0,0:0:0:0:
352,176,64328,1,0,0:0:0:0:
176,176,64511,1,0,0:0:0:0:
368,176,64694,1,8,0:0:0:0:
160,176,64877,1,0,0:0:0:0:
384,176,65060,2,0,P|384:272|304:288,2,191.999994140625,4|8|0,0:0|0:0|0:0,0:0:0:0:
32,320,66157,5,8,0:0:0:0:
208,320,66340,2,0,L|144:240,1,95.9999970703126,4|0,0:0|0:0,0:0:0:0:
288,64,66706,2,0,L|352:144,1,95.9999970703126,0|8,0:0|0:0,0:0:0:0:
208,192,67072,2,0,L|80:192,1,95.9999970703126,0|0,0:0|0:0,0:0:0:0:
384,320,67438,1,0,0:0:0:0:
256,256,67621,6,0,B|320:192|304:128|304:128|256:128,2,191.999994140625,8|4|8,0:0|0:0|0:0,0:0:0:0:
368,160,68535,1,0,0:0:0:0:
224,64,68718,2,0,B|255:32|287:40|287:40|287:64,2,95.9999970703126,0|0|8,0:0|0:0|0:0,0:0:0:0:
416,112,69267,2,0,L|320:112,1,95.9999970703126,4|0,0:0|0:0,0:0:0:0:
256,208,69633,1,0,0:0:0:0:
16,320,69816,2,0,L|208:272,1,191.999994140625,8|0,0:0|0:0,0:0:0:0:
336,272,70365,5,0,0:0:0:0:
208,192,70548,2,0,L|304:192,1,95.9999970703126,8|0,0:0|0:0,0:0:0:0:
128,208,70913,1,4,0:0:0:0:
224,112,71096,2,0,L|112:112,1,95.9999970703126,0|8,0:0|0:0,0:0:0:0:
320,112,71462,2,0,L|224:112,1,95.9999970703126,0|0,0:0|0:0,0:0:0:0:
352,192,71828,1,0,0:0:0:0:
224,288,72011,2,0,L|64:176,2,191.999994140625,8|0|8,0:0|0:0|0:0,0:0:0:0:
208,224,72926,5,0,0:0:0:0:
384,272,73109,2,0,L|288:272,1,95.9999970703126,0|0,0:0|0:0,0:0:0:0:
240,192,73474,2,0,L|176:192,4,47.9999985351563,8|0|0|0|0,0:0|0:0|0:0|0:0|0:0,0:0:0:0:
352,192,74023,5,0,0:0:0:0:
464,128,74206,2,0,L|304:128,1,160,8|0,0:0|0:0,0:0:0:0:
352,48,74755,1,0,0:0:0:0:
144,112,74938,2,0,L|240:112,1,80,8|0,0:0|0:0,0:0:0:0:
112,176,75304,5,4,0:0:0:0:
288,176,75487,1,0,0:0:0:0:
64,240,75669,2,0,L|224:240,2,160,8|0|8,0:0|0:0|0:0,0:0:0:0:
176,320,76584,1,4,0:0:0:0:
464,304,76767,6,0,L|304:304,2,160,0|8|0,0:0|0:0|0:0,0:0:0:0:
320,224,77682,1,0,0:0:0:0:
128,224,77865,2,0,L|304:224,2,160,8|0|8,0:0|0:0|0:0,0:0:0:0:
224,144,78779,1,0,0:0:0:0:
384,128,78962,2,0,L|304:128,1,80,0|0,0:0|0:0,0:0:0:0:
112,144,79328,2,0,P|160:96|256:64,2,160,8|0|8,0:0|0:0|0:0,0:0:0:0:
368,64,80426,5,0,0:0:0:0:
272,144,80609,1,0,0:0:0:0:
448,144,80791,2,0,L|304:224,1,160,8|0,0:0|0:0,0:0:0:0:
224,256,81340,1,0,0:0:0:0:
32,176,81523,2,0,L|176:304,1,160,8|0,0:0|0:0,0:0:0:0:
256,320,82072,1,0,0:0:0:0:
368,288,82255,2,0,L|448:288,1,80,8|4,0:0|0:0,0:0:0:0:
336,224,82621,2,0,L|208:128,1,160,0|8,0:0|0:0,0:0:0:0:
368,112,83169,1,0,0:0:0:0:
112,224,83352,2,0,L|272:224,2,160,0|8|0,0:0|0:0|0:0,0:0:0:0:
464,48,84450,6,0,L|416:144,1,80,8|0,0:0|0:0,0:0:0:0:
240,48,84816,2,0,L|288:128,1,80,0|0,0:0|0:0,0:0:0:0:
112,96,85182,1,8,0:0:0:0:
256,160,85365,1,4,0:0:0:0:
64,224,85548,2,0,L|224:224,1,160,0|8,0:0|0:0,0:0:0:0:
480,304,86279,2,0,L|320:304,1,160,0|8,0:0|0:0,0:0:0:0:
160,304,86828,1,0,0:0:0:0:
240,224,87011,2,0,L|320:224,2,80,0|0|8,0:0|0:0|0:0,0:0:0:0:
64,192,87560,2,0,L|64:112,1,80,0|0,0:0|0:0,0:0:0:0:
224,112,87926,1,0,0:0:0:0:
384,112,88109,1,8,0:0:0:0:
256,192,88291,12,0,89389,0:0:0:0:
