osu file format v13

[General]
AudioFilename: Tommy heavenly6 - .mp3
AudioLeadIn: 0
PreviewTime: 112887
Countdown: 0
SampleSet: None
StackLeniency: 0.5
Mode: 0
LetterboxInBreaks: 0
WidescreenStoryboard: 1

[Editor]
Bookmarks: 58458
DistanceSpacing: 1
BeatDivisor: 4
GridSize: 4
TimelineZoom: 1

[Metadata]
Title:La Soldier
TitleUnicode:ラ・ソウルジャー
Artist:Tommy heavenly6
ArtistUnicode:Tommy heavenly6
Creator:Imperf3kt
Version:Hard+
Source:Bishoujo Senshi Sailor Moon
Tags:bishoujo senshi sailor moon metal rock anniversary tribute album
BeatmapID:534007
BeatmapSetID:229526

[Difficulty]
HPDrainRate:4
CircleSize:5
OverallDifficulty:4
ApproachRate:9
SliderMultiplier:1.4
SliderTickRate:1

[Events]
//Background and Video events
0,0,"1366x768_sailor_moon.jpg",0,0
//Break Periods
2,31765,44144
2,82658,255001
//Storyboard Layer 0 (Background)
//Storyboard Layer 1 (Fail)
//Storyboard Layer 2 (Pass)
//Storyboard Layer 3 (Foreground)
//Storyboard Sound Samples
//Background Colour Transformations
3,100,163,162,255

[TimingPoints]
31030,428.571428571429,3,1,0,100,1,0

[HitObjects]
144,60,31244,1,0,0:0:0:0:
248,76,31565,1,0,0:0:0:0:
104,140,44744,5,0,0:0:0:0:
208,176,44958,1,0,0:0:0:0:
292,248,45172,1,0,0:0:0:0:
312,140,45387,1,0,0:0:0:0:
292,32,45601,1,0,0:0:0:0:
208,104,45815,1,0,0:0:0:0:
104,140,46244,5,0,0:0:0:0:
84,189,46351,1,0,0:0:0:0:
103,239,46458,1,0,0:0:0:0:
196,300,46672,1,0,0:0:0:0:
196,300,46887,1,0,0:0:0:0:
216,192,47101,1,0,0:0:0:0:
320,224,47315,1,0,0:0:0:0:
292,116,47530,1,0,0:0:0:0:
372,40,47744,1,0,0:0:0:0:
422,60,47851,1,0,0:0:0:0:
459,101,47958,1,0,0:0:0:0:
475,153,48065,1,0,0:0:0:0:
468,207,48172,1,0,0:0:0:0:
408,300,48387,5,0,0:0:0:0:
388,192,48601,1,0,0:0:0:0:
328,284,48815,1,0,0:0:0:0:
308,176,49030,1,0,0:0:0:0:
248,268,49244,1,0,0:0:0:0:
228,160,49672,5,0,0:0:0:0:
197,206,49779,1,0,0:0:0:0:
167,252,49886,1,0,0:0:0:0:
148,144,50101,1,0,0:0:0:0:
88,236,50315,1,0,0:0:0:0:
112,344,50530,1,0,0:0:0:0:
220,364,50744,1,0,0:0:0:0:
328,344,50958,1,0,0:0:0:0:
328,344,51172,2,0,B|340:272|388:232|392:132,2,210
432,308,52244,1,0,0:0:0:0:
228,228,52672,5,0,0:0:0:0:
332,192,52887,1,0,0:0:0:0:
424,132,53101,1,0,0:0:0:0:
332,192,53315,2,0,B|234:195|194:243|122:255,2,210
240,132,54387,1,0,0:0:0:0:
332,72,54601,1,0,0:0:0:0:
332,127,54708,1,0,0:0:0:0:
332,182,54815,1,0,0:0:0:0:
332,237,54922,1,0,0:0:0:0:
332,292,55029,1,0,0:0:0:0:
252,216,55244,1,0,0:0:0:0:
252,216,55458,1,0,0:0:0:0:
160,276,55672,1,0,0:0:0:0:
252,216,55887,1,0,0:0:0:0:
144,196,56101,1,0,0:0:0:0:
252,216,56315,1,0,0:0:0:0:
192,124,56530,1,0,0:0:0:0:
284,64,56744,5,0,0:0:0:0:
239,31,56851,1,0,0:0:0:0:
187,16,56958,1,0,0:0:0:0:
132,20,57065,1,0,0:0:0:0:
82,42,57172,1,0,0:0:0:0:
42,80,57279,1,0,0:0:0:0:
18,129,57386,1,0,0:0:0:0:
12,184,57493,1,0,0:0:0:0:
25,237,57601,1,0,0:0:0:0:
55,282,57708,1,0,0:0:0:0:
99,315,57815,1,0,0:0:0:0:
151,331,57922,1,0,0:0:0:0:
206,328,58029,1,0,0:0:0:0:
260,316,58137,1,0,0:0:0:0:
304,284,58244,1,0,0:0:0:0:
332,236,58351,1,0,0:0:0:0:
348,184,58458,6,0,P|240:180|232:184,1,105
152,244,58887,1,0,0:0:0:0:
152,244,59101,1,0,0:0:0:0:
44,264,59315,2,0,P|40:168|48:160,1,105
132,100,59744,1,0,0:0:0:0:
164,56,59851,1,0,0:0:0:0:
196,12,59958,1,0,0:0:0:0:
288,72,60172,1,0,0:0:0:0:
288,72,60387,1,0,0:0:0:0:
380,12,60601,2,0,P|416:52|428:108,1,105
388,208,61030,5,0,0:0:0:0:
344,240,61137,1,0,0:0:0:0:
292,256,61244,1,0,0:0:0:0:
400,272,61458,1,0,0:0:0:0:
356,304,61565,1,0,0:0:0:0:
304,320,61672,1,0,0:0:0:0:
124,192,61887,5,0,0:0:0:0:
228,156,62101,1,0,0:0:0:0:
124,120,62315,1,0,0:0:0:0:
20,84,62530,1,0,0:0:0:0:
124,48,62744,1,0,0:0:0:0:
20,84,62958,1,0,0:0:0:0:
124,120,63172,1,0,0:0:0:0:
228,156,63387,1,0,0:0:0:0:
124,192,63601,5,0,0:0:0:0:
125,246,63708,1,0,0:0:0:0:
127,301,63815,1,0,0:0:0:0:
228,348,64030,1,0,0:0:0:0:
278,325,64137,1,0,0:0:0:0:
328,303,64244,1,0,0:0:0:0:
432,340,64458,5,0,0:0:0:0:
508,260,64672,1,0,0:0:0:0:
400,240,64887,1,0,0:0:0:0:
460,148,65101,1,0,0:0:0:0:
352,148,65315,2,0,P|276:104|256:104,2,105
264,212,65958,1,0,0:0:0:0:
176,276,66172,2,0,P|252:320|272:320,2,105
264,212,66815,1,0,0:0:0:0:
124,124,67030,5,0,0:0:0:0:
440,220,67458,1,0,0:0:0:0:
116,280,67887,1,0,0:0:0:0:
368,68,68315,1,0,0:0:0:0:
368,68,68530,2,0,B|368:100|368:100|312:108|368:108|368:108|312:116|368:120|368:120|312:124|368:128|368:128|312:132|368:136|368:136|312:140|368:144|368:144|312:148|368:152|368:152|312:156|368:160|368:160|312:164|368:168|368:168|312:172|368:176|368:176|368:188,1,560
256,192,70458,12,0,72172,0:0:0:0:
156,92,72601,5,0,0:0:0:0:
352,192,73030,1,0,0:0:0:0:
132,192,73458,1,0,0:0:0:0:
328,92,73887,1,0,0:0:0:0:
236,292,74315,1,0,0:0:0:0:
432,192,74744,1,0,0:0:0:0:
236,92,75172,1,0,0:0:0:0:
40,192,75601,2,0,B|40:224|40:224|-16:224|40:232|40:232|-16:236|40:244|40:244|-16:248|40:252|40:252|40:264|40:264|-16:260|40:276|40:276|-16:272|40:284|40:284|-16:284|40:292|40:292|-16:296|40:300|40:300|40:312,1,455
40,80,76887,1,0,0:0:0:0:
40,80,77101,1,0,0:0:0:0:
256,32,77530,5,0,0:0:0:0:
262,86,77637,1,0,0:0:0:0:
264,141,77744,1,0,0:0:0:0:
262,196,77851,1,0,0:0:0:0:
256,251,77958,1,0,0:0:0:0:
256,251,78172,1,0,0:0:0:0:
156,204,78387,1,0,0:0:0:0:
256,251,78601,1,0,0:0:0:0:
356,204,78815,1,0,0:0:0:0:
256,192,79030,12,0,82458,0:0:0:0:
256,192,255601,12,0,259887,0:0:0:0:
120,272,260744,5,0,0:0:0:0:
100,220,260851,1,0,0:0:0:0:
99,166,260958,1,0,0:0:0:0:
116,114,261065,1,0,0:0:0:0:
151,71,261172,1,0,0:0:0:0:
197,43,261279,1,0,0:0:0:0:
251,32,261386,1,0,0:0:0:0:
305,41,261494,1,0,0:0:0:0:
353,67,261601,1,0,0:0:0:0:
389,108,261708,1,0,0:0:0:0:
409,159,261815,1,0,0:0:0:0:
410,214,261922,1,0,0:0:0:0:
392,266,262029,1,0,0:0:0:0:
358,309,262136,1,0,0:0:0:0:
311,337,262244,1,0,0:0:0:0:
257,347,262351,1,0,0:0:0:0:
257,347,262458,1,0,0:0:0:0:
148,340,262672,6,0,L|92:336,2,35
257,347,263101,1,0,0:0:0:0:
257,347,263422,1,0,0:0:0:0:
200,192,263744,1,0,0:0:0:0:
200,192,263958,1,0,0:0:0:0:
308,172,264172,6,0,P|360:172|364:176,2,35
332,280,264601,1,0,0:0:0:0:
332,280,264922,1,0,0:0:0:0:
176,224,265244,1,0,0:0:0:0:
156,116,265458,2,0,P|104:116|100:120,2,35
264,92,265887,5,0,0:0:0:0:
264,92,265994,1,0,0:0:0:0:
264,92,266101,1,0,0:0:0:0:
372,72,266315,1,0,0:0:0:0:
372,72,266422,1,0,0:0:0:0:
272,204,266744,1,0,0:0:0:0:
108,196,267065,1,0,0:0:0:0:
108,196,267387,1,0,0:0:0:0:
256,192,267601,12,0,269208,0:0:0:0:
256,192,269958,5,0,0:0:0:0:
256,192,270172,1,0,0:0:0:0:
