osu file format v13

[General]
AudioFilename: Tommy heavenly6 - .mp3
AudioLeadIn: 0
PreviewTime: 112892
Countdown: 0
SampleSet: None
StackLeniency: 0.5
Mode: 0
LetterboxInBreaks: 0
WidescreenStoryboard: 1

[Editor]
Bookmarks: 33392,33499,33713,33927,34035,34249,58463
DistanceSpacing: 1
BeatDivisor: 8
GridSize: 4
TimelineZoom: 1

[Metadata]
Title:La Soldier
TitleUnicode:ラ・ソウルジャー
Artist:Tommy heavenly6
ArtistUnicode:Tommy heavenly6
Creator:Imperf3kt
Version:Galactic
Source:Bishoujo Senshi Sailor Moon
Tags:bishoujo senshi sailor moon metal rock anniversary tribute album
BeatmapID:534006
BeatmapSetID:229526

[Difficulty]
HPDrainRate:4
CircleSize:5
OverallDifficulty:5
ApproachRate:9
SliderMultiplier:2.2
SliderTickRate:1

[Events]
//Background and Video events
0,0,"1366x768_sailor_moon.jpg",0,0
//Break Periods
2,37877,43672
2,82663,255006
//Storyboard Layer 0 (Background)
//Storyboard Layer 1 (Fail)
//Storyboard Layer 2 (Pass)
//Storyboard Layer 3 (Foreground)
//Storyboard Sound Samples
//Background Colour Transformations
3,100,163,162,255

[TimingPoints]
31035,428.571428571429,4,1,0,100,1,0

[HitObjects]
88,100,31035,5,0,0:0:0:0:
88,100,31142,1,0,0:0:0:0:
88,100,31249,1,0,0:0:0:0:
192,136,31463,1,0,0:0:0:0:
192,136,31677,1,0,0:0:0:0:
219,139,31785,1,0,0:0:0:0:
244,150,31892,1,0,0:0:0:0:
266,166,31999,1,0,0:0:0:0:
283,187,32106,1,0,0:0:0:0:
295,212,32213,1,0,0:0:0:0:
299,239,32320,1,0,0:0:0:0:
192,248,32535,1,0,0:0:0:0:
300,240,32749,5,0,0:0:0:0:
300,240,32856,1,0,0:0:0:0:
300,240,32963,1,0,0:0:0:0:
408,248,33177,1,0,0:0:0:0:
408,248,33392,2,0,P|436:200|436:196,1,36.6666666666667
352,132,33713,1,0,0:0:0:0:
460,112,33927,1,0,0:0:0:0:
460,112,34035,1,0,0:0:0:0:
384,32,34249,1,0,0:0:0:0:
276,32,34463,5,0,0:0:0:0:
276,32,34570,1,0,0:0:0:0:
276,32,34677,1,0,0:0:0:0:
307,193,34892,1,0,0:0:0:0:
307,193,35106,1,0,0:0:0:0:
321,216,35213,1,0,0:0:0:0:
329,242,35320,1,0,0:0:0:0:
331,269,35427,1,0,0:0:0:0:
325,296,35535,1,0,0:0:0:0:
313,321,35642,1,0,0:0:0:0:
295,342,35749,1,0,0:0:0:0:
220,260,35963,1,0,0:0:0:0:
184,156,36177,5,0,0:0:0:0:
184,156,36285,1,0,0:0:0:0:
184,156,36392,1,0,0:0:0:0:
76,148,36606,1,0,0:0:0:0:
76,148,36820,2,0,P|48:196|48:200,1,36.6666666666667
132,264,37142,1,0,0:0:0:0:
24,284,37356,1,0,0:0:0:0:
24,284,37463,1,0,0:0:0:0:
100,364,37677,1,0,0:0:0:0:
104,140,44749,5,0,0:0:0:0:
208,176,44963,1,0,0:0:0:0:
292,248,45177,1,0,0:0:0:0:
312,140,45392,1,0,0:0:0:0:
292,32,45606,1,0,0:0:0:0:
208,104,45820,1,0,0:0:0:0:
104,140,46249,5,0,0:0:0:0:
84,189,46356,1,0,0:0:0:0:
103,239,46463,1,0,0:0:0:0:
196,300,46677,1,0,0:0:0:0:
196,300,46892,1,0,0:0:0:0:
216,192,47106,1,0,0:0:0:0:
320,224,47320,1,0,0:0:0:0:
292,116,47535,1,0,0:0:0:0:
372,40,47749,1,0,0:0:0:0:
422,60,47856,1,0,0:0:0:0:
459,101,47963,1,0,0:0:0:0:
475,153,48070,1,0,0:0:0:0:
468,207,48177,1,0,0:0:0:0:
408,300,48392,5,0,0:0:0:0:
388,192,48606,1,0,0:0:0:0:
328,284,48820,1,0,0:0:0:0:
308,176,49035,1,0,0:0:0:0:
248,268,49249,1,0,0:0:0:0:
228,160,49677,5,0,0:0:0:0:
197,206,49785,1,0,0:0:0:0:
167,252,49892,1,0,0:0:0:0:
148,144,50106,1,0,0:0:0:0:
88,236,50320,1,0,0:0:0:0:
112,344,50535,1,0,0:0:0:0:
220,364,50749,1,0,0:0:0:0:
328,344,50963,1,0,0:0:0:0:
328,344,51177,2,0,B|340:272|388:232|392:132,2,220
432,308,52249,1,0,0:0:0:0:
228,228,52677,5,0,0:0:0:0:
332,192,52892,1,0,0:0:0:0:
424,132,53106,1,0,0:0:0:0:
332,192,53320,2,0,B|234:195|194:243|122:255,2,220
240,132,54392,1,0,0:0:0:0:
332,72,54606,1,0,0:0:0:0:
332,127,54713,1,0,0:0:0:0:
332,182,54820,1,0,0:0:0:0:
332,237,54927,1,0,0:0:0:0:
332,292,55035,1,0,0:0:0:0:
252,216,55249,1,0,0:0:0:0:
252,216,55463,1,0,0:0:0:0:
160,276,55677,1,0,0:0:0:0:
252,216,55892,1,0,0:0:0:0:
144,196,56106,1,0,0:0:0:0:
252,216,56320,1,0,0:0:0:0:
192,124,56535,1,0,0:0:0:0:
284,64,56749,5,0,0:0:0:0:
239,31,56856,1,0,0:0:0:0:
187,16,56963,1,0,0:0:0:0:
132,20,57070,1,0,0:0:0:0:
82,42,57177,1,0,0:0:0:0:
42,80,57285,1,0,0:0:0:0:
18,129,57392,1,0,0:0:0:0:
12,184,57499,1,0,0:0:0:0:
25,237,57606,1,0,0:0:0:0:
55,282,57713,1,0,0:0:0:0:
99,315,57820,1,0,0:0:0:0:
151,331,57927,1,0,0:0:0:0:
206,328,58035,1,0,0:0:0:0:
260,316,58142,1,0,0:0:0:0:
304,284,58249,1,0,0:0:0:0:
332,236,58356,1,0,0:0:0:0:
348,184,58463,6,0,P|240:180|232:184,1,110
152,244,58892,1,0,0:0:0:0:
152,244,59106,1,0,0:0:0:0:
44,264,59320,2,0,P|40:168|48:160,1,110
132,100,59749,1,0,0:0:0:0:
164,56,59856,1,0,0:0:0:0:
196,12,59963,1,0,0:0:0:0:
288,72,60177,1,0,0:0:0:0:
288,72,60392,1,0,0:0:0:0:
380,12,60606,2,0,P|416:52|428:108,1,110
388,208,61035,5,0,0:0:0:0:
344,240,61142,1,0,0:0:0:0:
292,256,61249,1,0,0:0:0:0:
400,272,61463,1,0,0:0:0:0:
356,304,61570,1,0,0:0:0:0:
304,320,61677,1,0,0:0:0:0:
124,192,61892,5,0,0:0:0:0:
228,156,62106,1,0,0:0:0:0:
124,120,62320,1,0,0:0:0:0:
20,84,62535,1,0,0:0:0:0:
124,48,62749,1,0,0:0:0:0:
20,84,62963,1,0,0:0:0:0:
124,120,63177,1,0,0:0:0:0:
228,156,63392,1,0,0:0:0:0:
124,192,63606,5,0,0:0:0:0:
125,246,63713,1,0,0:0:0:0:
127,301,63820,1,0,0:0:0:0:
228,348,64035,1,0,0:0:0:0:
278,325,64142,1,0,0:0:0:0:
328,303,64249,1,0,0:0:0:0:
432,340,64463,5,0,0:0:0:0:
508,260,64677,1,0,0:0:0:0:
400,240,64892,1,0,0:0:0:0:
460,148,65106,1,0,0:0:0:0:
352,148,65320,2,0,P|276:104|256:104,2,110
264,212,65963,1,0,0:0:0:0:
176,276,66177,2,0,P|252:320|272:320,2,110
264,212,66820,1,0,0:0:0:0:
124,124,67035,5,0,0:0:0:0:
440,220,67463,1,0,0:0:0:0:
116,280,67892,1,0,0:0:0:0:
368,68,68320,1,0,0:0:0:0:
368,68,68535,2,0,B|368:100|368:100|312:108|368:108|368:108|312:116|368:120|368:120|312:124|368:128|368:128|312:132|368:136|368:136|312:140|368:144|368:144|312:148|368:152|368:152|312:156|368:160|368:160|312:164|368:168|368:168|312:172|368:176|368:176|368:188,1,550
256,192,70463,12,0,72177,0:0:0:0:
156,92,72606,5,0,0:0:0:0:
352,192,73035,1,0,0:0:0:0:
132,192,73463,1,0,0:0:0:0:
328,92,73892,1,0,0:0:0:0:
236,292,74320,1,0,0:0:0:0:
432,192,74749,1,0,0:0:0:0:
236,92,75177,1,0,0:0:0:0:
40,192,75606,2,0,B|40:224|40:224|-16:224|40:232|40:232|-16:236|40:244|40:244|-16:248|40:252|40:252|40:264|40:264|-16:260|40:276|40:276|-16:272|40:284|40:284|-16:284|40:292|40:292|-16:296|40:300|40:300|40:312,1,440
40,80,76892,1,0,0:0:0:0:
40,80,77106,1,0,0:0:0:0:
256,32,77535,5,0,0:0:0:0:
262,86,77642,1,0,0:0:0:0:
264,141,77749,1,0,0:0:0:0:
262,196,77856,1,0,0:0:0:0:
256,251,77963,1,0,0:0:0:0:
256,251,78177,1,0,0:0:0:0:
156,204,78392,1,0,0:0:0:0:
256,251,78606,1,0,0:0:0:0:
356,204,78820,1,0,0:0:0:0:
256,192,79035,12,0,82463,0:0:0:0:
256,192,255606,12,0,259892,0:0:0:0:
120,272,260749,5,0,0:0:0:0:
100,220,260856,1,0,0:0:0:0:
99,166,260963,1,0,0:0:0:0:
116,114,261070,1,0,0:0:0:0:
151,71,261177,1,0,0:0:0:0:
197,43,261285,1,0,0:0:0:0:
251,32,261392,1,0,0:0:0:0:
305,41,261499,1,0,0:0:0:0:
353,67,261606,1,0,0:0:0:0:
389,108,261713,1,0,0:0:0:0:
409,159,261820,1,0,0:0:0:0:
410,214,261927,1,0,0:0:0:0:
392,266,262035,1,0,0:0:0:0:
358,309,262142,1,0,0:0:0:0:
311,337,262249,1,0,0:0:0:0:
257,347,262356,1,0,0:0:0:0:
257,347,262463,1,0,0:0:0:0:
148,340,262677,6,0,L|92:336,2,36.6666666666667
257,347,263106,1,0,0:0:0:0:
257,347,263427,1,0,0:0:0:0:
200,192,263749,1,0,0:0:0:0:
200,192,263963,1,0,0:0:0:0:
308,172,264177,6,0,P|360:172|364:176,2,36.6666666666667
332,280,264606,1,0,0:0:0:0:
332,280,264927,1,0,0:0:0:0:
176,224,265249,1,0,0:0:0:0:
156,116,265463,2,0,P|104:116|100:120,2,36.6666666666667
264,92,265892,5,0,0:0:0:0:
264,92,265999,1,0,0:0:0:0:
264,92,266106,1,0,0:0:0:0:
372,72,266320,1,0,0:0:0:0:
372,72,266427,1,0,0:0:0:0:
272,204,266749,1,0,0:0:0:0:
108,196,267070,1,0,0:0:0:0:
108,196,267392,1,0,0:0:0:0:
256,192,267606,12,0,269213,0:0:0:0:
256,192,269963,5,0,0:0:0:0:
256,192,270177,1,0,0:0:0:0:
