osu file format v5

[General]
AudioFilename: gintama.MP3
AudioLeadIn: 496
PreviewTime: -1
Countdown: 1
SampleSet: Normal
StackLeniency: 0.7
Mode: 0
LetterboxInBreaks: 1

[Metadata]
Title:Pray
Artist:Tommy Heavenly6
Creator:tom800510
Version:Normal
Source:
Tags:

[Difficulty]
HPDrainRate:4
CircleSize:4
OverallDifficulty:5
SliderMultiplier:2.2
SliderTickRate:0.5

[Events]
//Background and Video events
1,0,"gintama.flv"
0,0,"img_585784_5477503_0.jpg"
//Break Periods
//Storyboard Layer 0 (Background)
//Storyboard Layer 1 (Failing)
//Storyboard Layer 2 (Passing)
//Storyboard Layer 3 (Foreground)
//Storyboard Sound Samples
//Background Colour Transformations
3,100,0,0,0

[TimingPoints]
754,674.160431654676,4,1,0,85,1
31596,-100,4,1,0,80,0
36653,-100,4,2,0,100,0
38001,-100,4,1,0,80,0
42046,-100,4,2,0,80,0
43394,-100,4,1,0,80,0

[Colours]
Combo1 : 158,158,158
Combo2 : 151,203,255
Combo3 : 255,255,255
Combo4 : 251,79,79

[HitObjects]
448,72,11877,1,0
447,181,12214,1,0
445,290,12551,1,0
335,291,12888,1,0
225,293,13225,1,0
226,182,13563,2,2,L|103:183,2,110,2|2|0
226,72,14574,5,0
116,71,14911,1,0
120,180,15248,2,0,L|241:181,1,110
232,290,15922,2,2,L|95:289,3,110,2|2|2|4
36,220,17270,5,0
125,155,17608,1,0
206,229,17945,1,0
292,161,18282,1,0
292,161,18619,1,2
380,226,18956,1,2
380,226,19293,1,2
481,183,19630,1,4
481,183,19967,5,0
371,172,20304,2,0,B|308:154|309:86,1,110
201,69,20978,2,0,B|108:88|131:149,1,110,2|0
214,200,21652,2,2,B|266:246|224:308,1,110
229,298,22327,1,4
131,349,22664,5,0
35,294,23001,1,0
131,241,23338,1,0
36,185,23675,1,2
36,185,23843,1,2
36,185,24012,1,2
132,132,24349,1,0
132,132,24686,1,0
227,78,25023,1,4
336,79,25360,5,0
426,141,25697,2,0,B|463:200|430:245,1,110
370,336,26372,1,2
370,336,26540,1,2
370,336,26709,1,2
260,336,27046,1,0
150,338,27383,1,0
40,338,27720,1,4
37,228,28057,6,0,B|30:156|107:134,1,110
198,140,28731,1,0
307,140,29068,1,2
307,140,29237,1,2
307,140,29405,1,2
363,234,29742,2,0,B|451:211|415:122,1,110
424,46,30417,1,4
256,192,30754,12,8,31765
443,72,32439,5,8
333,72,32776,6,0,B|333:195,3,110
333,182,34124,1,8
222,187,34462,2,0,B|222:334,3,110,0|0|0|8
112,298,35810,2,0,B|112:172,2,110
256,192,36821,12,2,37832
175,57,38169,5,0
284,59,38506,1,4
394,60,38844,1,0
487,117,39181,2,0,B|480:198|363:196,1,110,0|8
307,192,39855,1,4
197,191,40192,1,0
87,189,40529,1,0
28,281,40866,2,0,B|49:352|135:349,1,110,8|4
216,347,41540,1,0
325,348,41877,1,0
256,192,42214,12,2,43226
94,44,43563,6,0,B|94:110,2,55
94,153,44237,1,2
203,155,44574,1,0
204,264,44911,1,0
313,264,45248,1,6
313,155,45585,1,0
203,155,45922,1,0
204,264,46259,1,0
313,265,46596,1,6
422,267,46933,1,0
423,156,47271,1,0
423,46,47608,2,0,B|423:116,2,55,0|0|0
423,155,48282,1,4
89,332,48956,6,0,B|90:246,2,55,0|0|4
89,222,49630,2,0,B|89:144,2,55,0|0|4
88,112,50304,1,2
176,47,50641,1,0
176,47,50978,1,0
286,50,51316,1,0
286,50,51653,1,0
395,51,51990,1,6
203,159,52664,5,0
203,159,52832,1,0
203,159,53001,1,2
131,242,53338,1,8
208,319,53675,1,0
208,319,53844,1,0
208,319,54012,2,4,B|369:320,1,110,8|4
427,310,54686,6,0,B|427:211,3,55,4|0|0|0
427,199,55360,1,2
427,88,55698,1,0
317,88,56035,2,0,B|249:72|183:95,1,110
98,87,56709,1,2
98,87,56877,1,0
98,87,57046,1,0
98,196,57383,2,0,B|160:182|248:206,1,110
317,198,58057,1,2
314,307,58394,2,0,B|245:307,2,55
204,308,59068,5,2
204,308,59237,1,2
204,308,59405,1,2
93,306,59743,1,2
93,306,59911,1,2
93,306,60080,1,6
91,86,60754,5,0
200,87,61091,2,0,B|141:87,2,55
308,87,61765,1,2
417,92,62102,2,0,B|447:167|407:233,1,110
313,209,62776,1,6
203,211,63113,1,0
93,214,63450,1,2
94,324,63788,1,2
203,325,64125,2,0,B|264:325,3,55,0|0|2|0
313,325,64799,2,0,B|376:325,3,55,0|0|2|0
423,325,65473,5,4
424,215,65810,1,0
424,159,65979,1,0
425,104,66147,1,2
315,106,66484,1,0
315,161,66653,1,0
316,215,66821,1,2
243,297,67158,2,0,B|177:337|112:303,1,110
113,206,67832,2,0,B|164:160|257:197,1,110,2|0
317,229,68507,2,0,B|374:168|346:99,1,110
257,76,69181,1,2
257,76,69518,1,0
257,76,69855,1,0
257,76,70192,5,0
257,76,70529,1,0
365,91,70866,2,0,B|423:153,1,55
433,176,71203,2,0,B|386:222,1,55
376,266,71540,2,0,B|427:306,2,55,8|0|0
265,267,72215,1,4
265,267,72552,1,0
265,267,72889,1,0
265,267,73226,5,0
175,330,73563,2,0,B|115:290,1,55,8|0
88,261,73900,2,0,B|136:196,1,55
165,183,74237,2,0,B|233:182,1,55,8|0
275,182,74574,2,0,B|333:183,1,55
384,187,74911,2,0,B|444:116,1,55,8|0
460,107,75248,2,0,B|395:40,1,55,8|0
371,45,75585,2,0,B|270:46,3,55
260,45,76259,5,12
260,155,76597,1,0
260,155,76765,1,0
260,155,76934,1,4
260,264,77271,1,0
260,264,77439,1,0
260,264,77608,1,6
153,71,78282,1,8
372,73,78956,1,4
