osu file format v5

[General]
AudioFilename: gintama.MP3
AudioLeadIn: 496
PreviewTime: -1
Countdown: 1
SampleSet: Normal
StackLeniency: 0.7
Mode: 0
LetterboxInBreaks: 1

[Metadata]
Title:Pray
Artist:Tommy Heavenly6
Creator:tom800510
Version:Easy
Source:
Tags:

[Difficulty]
HPDrainRate:2
CircleSize:3
OverallDifficulty:2
SliderMultiplier:1.5
SliderTickRate:0.5

[Events]
//Background and Video events
1,0,"gintama.flv"
0,0,"img_585784_5477503_0.jpg"
//Break Periods
2,32639,35501
//Storyboard Layer 0 (Background)
//Storyboard Layer 1 (Failing)
//Storyboard Layer 2 (Passing)
//Storyboard Layer 3 (Foreground)
//Storyboard Sound Samples
//Background Colour Transformations
3,100,0,0,0

[TimingPoints]
754,674.160431654676,4,1,0,85,1
36653,-100,4,2,0,80,0
38338,-100,4,1,0,80,0
42046,-100,4,2,0,80,0
43394,-100,4,1,0,80,0
54518,-100,4,1,0,91,0

[Colours]
Combo1 : 158,158,158
Combo2 : 151,203,255
Combo3 : 255,255,255
Combo4 : 251,79,79

[HitObjects]
449,293,11877,1,0
449,293,12214,1,0
374,294,12551,1,0
299,295,12888,1,0
224,295,13225,1,0
148,294,13563,1,0
73,295,13900,2,0,C|73:140,1,150,2|0
73,70,14911,6,0,C|158:71,1,75
222,72,15585,2,0,C|222:168,1,75
224,221,16259,2,0,C|64:221,1,150,0|2
73,295,17270,5,0
148,296,17608,1,0
148,221,17945,1,0
222,223,18282,1,0
223,148,18619,1,0
223,73,18956,1,0
297,74,19293,2,0,L|380:75|380:176|440:176,1,225,2|0
419,250,20641,5,0
419,324,20978,2,0,L|313:324,1,75
339,249,21652,2,0,L|245:248|245:320,1,150,0|6
174,303,22664,5,0
99,302,23001,1,0
101,227,23338,1,0
175,226,23675,1,0
174,151,24012,1,0
99,150,24349,1,0
99,75,24686,2,0,L|182:76,1,75,2|0
248,78,25360,5,0
322,78,25697,1,0
322,153,26035,1,0
396,151,26372,2,0,L|478:152,1,75
472,226,27046,2,0,L|375:226,2,75,0|0|6
472,300,28057,5,0
397,300,28394,1,0
322,302,28731,2,0,L|238:302,1,75
172,299,29405,2,0,L|173:203,3,75,0|0|0|2
97,224,30754,6,0,L|98:131,1,75
22,148,31428,2,0,L|22:40,3,75,0|4|0|0
256,192,36484,12,0,37832
75,101,38506,6,0,L|75:209,1,75,0|8
257,308,39855,2,0,L|257:208,1,75,0|8
441,104,41203,2,0,L|442:202,1,75,0|8
256,192,41877,12,0,43226
96,248,43900,6,0,L|97:350,1,75
171,327,44574,2,0,L|171:247,1,75,0|8
245,249,45248,2,0,L|246:339,2,75
319,250,46259,6,0,L|410:250,1,75,8|0
397,175,46933,2,0,L|307:175,1,75
320,99,47608,2,0,L|421:99,2,75,8|0|4
170,101,48956,5,0
95,102,49293,1,0
95,176,49630,1,8
169,177,49967,1,0
172,251,50304,1,0
246,251,50641,1,8
246,251,50978,1,0
321,251,51316,1,8
321,251,51653,1,0
395,253,51990,1,0
245,252,52664,5,2
106,193,53338,1,8
245,136,54012,1,4
395,142,54686,5,4
395,142,55023,1,0
395,142,55360,1,0
395,142,55698,1,0
395,216,56035,2,0,L|286:216,1,75,2|0
245,216,56709,2,0,L|148:216|148:129,1,150,2|0
146,88,57720,2,0,L|240:88|241:174,1,150,2|0
241,218,58731,1,8
164,346,59405,1,8
314,346,60080,1,4
423,243,60754,5,0
423,243,61091,1,0
423,243,61428,1,0
423,243,61765,1,0
423,168,62102,2,0,L|423:76,1,75,2|0
348,93,62776,2,0,L|260:93|261:28,1,150,2|0
185,31,63788,1,0
129,81,64125,2,0,L|84:159,1,75,2|0
94,220,64799,2,4,L|136:289,1,75,2|4
180,341,65473,5,4
254,341,65810,2,2,L|358:341,1,75
327,266,66484,2,0,L|327:161,1,75,0|4
327,116,67158,1,2
327,116,67495,1,0
328,41,67832,1,0
328,41,68170,1,4
402,41,68507,1,2
402,41,68844,1,0
404,115,69181,1,0
404,189,69518,2,0,L|403:258|286:258,1,150,8|0
256,192,70866,12,2,72215
77,91,73563,6,0,L|179:91,1,75
153,165,74237,2,0,L|153:258,1,75,2|0
227,237,74911,2,0,L|313:237,1,75
376,236,75585,2,0,L|377:340,1,75,2|0
451,308,76259,6,0,L|368:308,3,75,2|0|2|0
376,232,77608,2,0,L|377:121,1,75,2|0
301,161,78282,2,0,L|202:160,1,75,2|0
151,162,78956,1,4
