osu file format v5

[General]
AudioFilename: 1 Pray.mp3
AudioLeadIn: 1500
PreviewTime: -1
Countdown: 1
SampleSet: Normal
StackLeniency: 0.7
Mode: 0
LetterboxInBreaks: 1
EditorBookmarks: 341,22925,101127

[Metadata]
Title:Pray
Artist:Tommy Heavenly6
Creator:kioukiou
Version:Moonstar Difficulty
Source:
Tags:

[Difficulty]
HPDrainRate:7
CircleSize:5
OverallDifficulty:7
SliderMultiplier:1.4
SliderTickRate:2

[Events]
//Background and Video events
0,0,"gintama038-1.jpg"
//Break Periods
2,90541,100077
//Storyboard Layer 0 (Background)
//Storyboard Layer 1 (Failing)
//Storyboard Layer 2 (Passing)
//Storyboard Layer 3 (Foreground)
//Storyboard Sound Samples
//Background Colour Transformations
3,100,255,255,255

[TimingPoints]
4,337.078651685393,4,1,1,100,1

[Colours]
Combo1 : 243,215,12
Combo2 : 17,227,106
Combo3 : 7,70,237
Combo4 : 232,56,13
Combo5 : 19,179,225

[HitObjects]
256,192,1352,1,0
368,192,1689,1,0
480,192,2026,1,0
368,192,2363,1,0
256,192,2700,1,0
256,192,2869,1,0
256,192,3037,1,0
144,192,3374,1,2
144,192,3543,1,2
144,192,3711,1,2
32,192,4048,5,0
32,80,4386,1,0
144,80,4723,1,0
256,80,5060,1,0
256,192,5397,1,0
312,192,5565,1,0
368,192,5734,1,0
368,80,6071,1,8
424,80,6239,1,8
480,80,6408,1,8
456,192,6745,5,0
480,80,7082,1,0
384,136,7419,1,0
288,192,7756,6,0,B|192:192,2,70
176,192,8430,2,2,B|96:192,2,70
176,80,9105,6,0,B|88:80,2,70
288,80,9779,2,0,B|288:160,2,70
400,80,10453,2,2,B|304:80,2,70
424,192,11127,2,0,B|424:232,8,35
312,192,12138,5,0
256,96,12475,1,0
144,96,12812,1,0
144,96,12981,1,0
144,96,13150,1,0
32,96,13487,5,0
32,208,13824,1,0
144,208,14161,1,8
144,208,14329,1,8
144,208,14498,1,8
256,192,14835,5,0
256,304,15172,1,0
144,304,15509,1,0
256,304,15846,1,0
256,304,16015,1,0
256,304,16183,1,0
256,192,16520,5,8
256,192,16689,1,8
256,192,16857,1,8
256,304,17195,2,0,B|384:184,1,140
472,208,17869,2,0,B|472:64,1,140
360,40,18543,6,0,B|216:40,1,140
208,152,19217,2,0,B|104:152|80:240,1,140
40,312,19891,6,0,B|184:312,1,140
288,312,20565,2,0,B|448:312,1,140
256,192,21071,12,0,22588
32,352,22925,6,0,B|32:200,1,140
32,96,23599,2,0,B|192:96,1,140
280,96,24273,2,0,B|280:256,1,140
280,344,24947,1,2
280,344,25116,1,2
280,344,25284,1,2
344,248,25621,6,0,B|488:248,1,140
400,168,26296,2,0,B|400:16,1,140
288,24,26970,2,0,B|136:24,1,140
96,120,27644,1,2
96,120,27812,1,2
96,120,27981,1,2
208,120,28318,6,0,B|208:200,2,70
296,192,28992,2,0,B|296:290,2,70
408,192,29666,2,0,B|480:192,2,70
408,80,30341,2,0,B|408:168,2,70
296,80,31015,5,0
296,136,31183,1,0
296,192,31352,1,0
408,192,31689,1,0
464,192,31857,1,0
464,248,32026,1,0
352,248,32363,2,0,B|208:248,1,140
216,248,33037,1,0
120,192,33374,5,8
216,128,33711,5,0
216,128,33880,1,0
216,128,34048,1,0
320,128,34386,1,0
320,184,34554,1,0
320,240,34723,1,0
216,256,35060,5,0
216,256,35228,1,0
216,256,35397,1,0
216,360,35734,1,0
272,360,35902,1,0
328,360,36071,1,0
440,360,36408,6,0,B|440:264,2,70
504,264,37082,2,0,B|432:200,2,70
488,152,37756,2,2,B|488:64,6,70
400,104,39105,6,0,B|328:104,1,70
272,104,39442,1,0
200,192,39779,2,0,B|288:192,1,70
328,192,40116,1,0
256,104,40453,5,0
256,104,40621,2,0,B|168:104,1,70
72,104,41127,1,0
72,104,41296,2,0,B|72:200,1,70
80,288,41801,6,0,B|32:328|96:368,2,70
192,288,42475,6,0,B|144:328|208:368,2,70
256,192,43150,6,2,B|208:232|272:272,4,70
256,80,44161,1,0
312,80,44329,1,0
368,80,44498,1,0
368,136,44666,1,0
368,192,44835,1,0
368,248,45003,1,8
424,248,45172,1,8
424,360,45509,5,0
424,360,45678,1,0
424,360,45846,1,0
424,360,46015,1,0
368,360,46183,1,0
312,360,46352,1,8
256,360,46520,1,8
144,360,46857,5,0
144,304,47026,1,0
144,248,47195,1,0
144,192,47363,1,0
144,136,47532,2,8,B|144:72,2,35
144,136,47869,1,8
144,24,48206,5,0
200,24,48374,1,0
240,56,48543,1,0
280,96,48711,1,0
320,128,48880,2,0,B|384:128,2,35
320,128,49217,1,0
408,192,49554,6,0,B|408:264,4,70
408,192,50397,1,8
408,192,50565,1,8
408,80,50902,6,0,B|472:8,4,70
408,80,51745,1,8
408,80,51914,1,8
480,168,52251,6,0,B|480:88,1,70
424,96,52588,2,0,B|328:96,1,70
296,104,52925,2,0,B|296:208,1,70
296,232,53262,1,8
192,192,53599,5,0
192,192,53768,1,0
136,192,53936,1,8
136,192,54105,1,8
80,192,54273,2,0,B|32:192,2,35
80,192,54610,1,0
88,304,54947,5,0
88,192,55284,1,0
88,80,55621,1,0
200,80,55959,1,0
312,80,56296,1,0
424,80,56633,2,0,B|424:224,1,140
368,320,57307,2,0,B|368:176,1,140
480,184,57981,2,2,B|480:336,1,140
368,320,58655,6,0,B|280:320,2,70
368,208,59329,6,0,B|288:208,2,70
368,96,60003,5,0
464,40,60341,1,0
352,40,60678,1,0
240,40,61015,1,0
240,152,61352,1,0
240,264,61689,1,8
240,264,62026,1,8
240,264,62363,1,8
256,192,62700,12,0,65397
256,192,65734,5,0
256,192,65902,1,0
256,192,66071,1,0
368,192,66408,1,0
368,192,66577,1,0
368,192,66745,1,0
368,80,67082,2,0,B|448:80,2,70
256,80,67756,2,0,B|176:80,2,70
312,176,68430,1,8
312,176,68599,1,8
312,176,68768,1,8
232,120,69105,5,0
176,120,69273,1,0
136,160,69442,1,0
32,200,69779,2,0,B|32:288,6,70
32,200,70959,1,8
32,200,71127,1,8
104,112,71464,5,0
144,152,71633,1,0
184,192,71801,2,0,B|184:336|288:336|400:336|400:184|400:184,2,350
280,144,73824,1,0
280,88,73992,1,0
280,32,74161,1,0
392,32,74498,1,0
392,88,74666,1,0
392,144,74835,1,0
328,232,75172,5,0
328,232,75341,1,0
328,232,75509,1,0
328,232,75678,1,0
328,232,75846,1,2
328,232,76183,1,2
256,144,76520,5,0
200,144,76689,1,0
200,144,76857,1,0
88,144,77195,1,0
88,88,77363,1,0
88,88,77532,1,0
88,200,77869,1,0
88,256,78037,2,0,B|88:336,1,70
200,328,78543,2,0,B|296:328,1,70
328,328,78880,1,0
440,328,79217,2,0,B|440:168,1,140
440,80,79891,2,0,B|440:240,1,140
376,336,80565,2,0,B|376:176,1,140
376,80,81239,2,2,B|376:256,1,140
256,192,81914,1,0
256,192,82082,1,0
256,192,82251,1,0
144,192,82588,5,0
200,192,82756,1,0
256,192,82925,1,0
368,192,83262,5,0
312,192,83430,1,0
256,192,83599,1,0
256,304,83936,5,0
256,248,84105,1,0
256,192,84273,1,0
256,80,84610,5,0
256,136,84779,1,0
256,192,84947,1,0
192,280,85284,6,8,B|344:280,2,140
88,240,86296,1,0
56,128,86633,1,0
136,48,86970,1,0
248,48,87307,1,0
360,48,87644,1,0
440,128,87981,1,0
424,240,88318,1,0
256,192,88655,12,2,90341
256,192,101127,5,0
368,192,101464,1,0
256,192,101801,1,0
144,192,102138,1,0
144,80,102475,1,0
256,80,102812,1,0
368,80,103150,1,0
480,80,103487,1,2
480,192,103824,5,0
480,304,104161,1,0
368,304,104498,1,0
256,304,104835,1,0
256,192,105172,1,0
144,192,105509,1,0
144,304,105846,1,0
32,304,106183,1,2
32,248,106352,1,0
32,192,106520,1,2
32,64,106857,5,0
32,64,107195,6,0,B|176:64,1,140
168,176,107869,2,0,B|256:56,1,140
256,176,108543,2,0,B|344:56,1,140
448,72,109217,2,0,B|360:192,1,140
472,160,109891,2,0,B|384:272,1,140
304,344,110565,1,0
248,344,110734,1,0
192,344,110902,1,0
192,232,111239,5,8
248,232,111408,1,8
304,232,111577,1,8
416,232,111914,5,0
416,120,112251,1,0
304,120,112588,1,0
192,120,112925,2,0,B|48:120,1,140
56,232,113599,2,0,B|216:232,1,140
200,344,114273,2,0,B|32:344,1,140
56,232,114947,2,0,B|216:232,1,140
304,232,115621,5,0
304,344,115959,1,0
416,344,116296,1,2
416,344,116464,1,2
416,344,116633,1,2
472,232,116970,6,0,B|472:128|384:104|376:104,1,140
304,72,117644,2,0,B|216:40|144:112,1,140
96,168,118318,2,0,B|56:280|152:296,1,140
224,336,118992,2,0,B|312:368|376:288,1,140
424,224,119666,5,0
424,168,119835,1,0
424,112,120003,1,0
312,112,120341,1,0
256,112,120509,1,0
200,112,120678,1,0
88,112,121015,5,0
88,168,121183,1,0
88,224,121352,1,0
200,224,121689,1,2
256,224,121857,1,2
256,168,122026,1,2
256,168,122195,1,8
256,168,122363,1,8
256,56,122700,6,0,B|376:152,1,140
256,128,123374,2,0,B|144:224,1,140
256,192,124048,2,0,B|360:288,1,140
256,328,124723,6,0,B|144:232,1,140
256,256,125397,2,0,B|376:168,1,140
256,192,126071,2,0,B|152:88,1,140
256,48,126745,1,2
256,48,126914,1,2
256,48,127082,5,8
256,48,127251,1,8
256,48,127419,1,8
368,48,127756,5,0
368,160,128093,1,0
256,160,128430,1,0
368,160,128768,1,0
480,160,129105,1,0
480,272,129442,1,0
368,272,129779,1,8
256,272,130116,5,0
144,272,130453,1,0
144,160,130790,1,0
256,160,131127,1,0
368,160,131464,1,0
368,272,131801,1,0
256,272,132138,1,0
144,272,132475,2,8,B|48:272,2,70
64,192,133150,6,2,B|152:192,1,70
192,192,133487,1,0
304,192,133824,1,0
360,192,133992,2,2,B|456:192,1,70
432,80,134498,5,0
376,80,134666,2,2,B|296:80,1,70
192,80,135172,2,2,B|112:80,1,70
64,80,135509,1,0
64,192,135846,1,0
96,240,136015,1,0
128,192,136183,1,0
224,240,136520,5,0
256,192,136689,1,0
288,240,136857,1,0
392,192,137195,5,0
424,240,137363,1,0
456,192,137532,1,0
320,192,137869,6,8,B|240:192,2,70
320,80,138543,5,0
208,80,138880,1,0
304,136,139217,1,0
192,136,139554,1,0
288,192,139891,1,0
176,192,140228,1,0
272,248,140565,1,2
328,344,140902,5,0
224,304,141239,1,0
336,288,141577,1,0
232,248,141914,1,0
344,232,142251,1,0
240,192,142588,1,0
352,176,142925,1,0
248,136,143262,1,0
360,120,143599,1,2
256,72,143936,6,0,B|176:72,2,70
256,184,144610,2,0,B|352:184,2,70
256,296,145284,2,0,B|152:296,2,70
256,184,145959,1,0
256,184,146127,1,0
256,184,146296,1,0
144,192,146633,6,0,B|144:120,1,70
144,64,146970,2,0,B|232:64,1,70
272,64,147307,2,0,B|344:128,1,70
368,144,147644,2,0,B|368:248,1,70
368,272,147981,2,0,B|296:336,1,70
264,328,148318,2,0,B|192:328,1,70
136,328,148655,1,2
176,288,148824,1,2
216,248,148992,1,2
120,192,149329,6,0,B|120:48,1,140
232,56,150003,2,0,B|232:216,1,140
344,192,150678,2,0,B|344:48,1,140
456,56,151352,2,0,B|456:208,1,140
456,304,152026,5,0
344,304,152363,1,0
440,248,152700,1,0
328,248,153037,1,0
376,144,153374,1,2
264,144,153711,1,2
320,48,154048,1,2
208,48,154386,1,2
144,144,154723,1,0
144,200,154891,1,0
144,256,155060,1,0
256,280,155397,6,0,B|408:280,1,140
456,184,156071,2,0,B|384:320,1,140
352,216,156745,2,0,B|456:344,1,140
328,336,157419,2,0,B|472:288,1,140
464,176,158093,5,0
464,64,158430,1,0
352,64,158768,1,0
240,64,159105,1,0
312,144,159442,1,0
208,192,159779,1,0
304,240,160116,5,0
256,136,160453,1,0
160,80,160790,1,0
80,160,161127,1,0
136,256,161464,1,0
248,264,161801,1,0
336,336,162138,1,0
424,264,162475,5,0
464,160,162812,1,0
472,48,163150,1,0
360,48,163487,1,0
328,152,163824,1,8
256,240,164161,1,8
184,152,164498,1,8
256,64,164835,1,8
256,176,165172,5,0
256,288,165509,1,0
304,256,165678,1,0
352,288,165846,1,0
464,288,166183,5,0
432,240,166352,1,0
464,192,166520,1,0
464,80,166857,5,2
408,80,167026,1,2
352,80,167195,1,2
296,80,167363,1,10
240,80,167532,1,10
256,192,167700,12,4,168543
