osu file format v5

[General]
AudioFilename: 1 Pray.mp3
AudioLeadIn: 3000
PreviewTime: -1
Countdown: 1
SampleSet: Normal
StackLeniency: 0.7
Mode: 0
LetterboxInBreaks: 1
EditorBookmarks: 341,22925,101127

[Metadata]
Title:Pray
Artist:Tommy Heavenly6
Creator:kioukiou
Version:Easy
Source:
Tags:

[Difficulty]
HPDrainRate:5
CircleSize:4
OverallDifficulty:5
SliderMultiplier:0.9
SliderTickRate:1

[Events]
//Background and Video events
0,0,"gintama038-1.jpg"
//Break Periods
2,89529,100077
//Storyboard Layer 0 (Background)
//Storyboard Layer 1 (Failing)
//Storyboard Layer 2 (Passing)
//Storyboard Layer 3 (Foreground)
//Storyboard Sound Samples
//Background Colour Transformations
3,100,255,255,255

[TimingPoints]
4,337.078651685393,4,1,1,100,1,0

[Colours]
Combo1 : 243,215,12
Combo2 : 17,227,106
Combo3 : 7,70,237
Combo4 : 232,56,13
Combo5 : 19,179,225

[HitObjects]
440,64,22925,1,0
440,64,23262,1,0
440,64,23599,2,2,B|440:192|320:192,1,180
232,192,24610,1,8
232,192,24947,1,8
64,56,25621,5,0
64,56,25959,1,0
64,56,26296,2,2,B|64:192|168:192,1,180
256,192,27307,2,0,B|256:296,2,90,0|8|8
256,80,28318,5,0
144,80,28655,1,0
72,160,28992,1,0
144,240,29329,1,0
248,240,29666,1,0
320,160,30004,2,0,B|128:160,1,180
32,160,31015,5,0
32,264,31352,1,0
136,264,31689,2,0,B|136:368|280:368,1,180
264,256,32700,2,0,B|264:144|128:144,1,180
152,32,33711,5,0
256,32,34048,1,0
256,136,34386,2,0,B|368:136,2,90
144,136,35397,1,8
144,136,35734,2,0,B|64:152|64:256|136:272,1,180,8|0
232,272,36745,5,2
336,272,37082,1,2
440,272,37419,2,2,B|488:224|488:144|448:88,2,180
360,192,39105,5,0
248,192,39442,1,0
136,192,39779,2,2,B|56:144|72:88|144:48,2,180
352,192,41801,5,0
240,192,42138,1,0
240,80,42475,1,0
128,80,42812,2,2,B|128:272,1,180
232,264,43824,5,0
232,264,44161,1,8
232,264,44498,1,8
376,104,45172,2,0,B|304:184,2,90,0|8|8
152,104,46520,1,0
152,208,46857,1,8
56,152,47195,1,8
256,192,47869,12,0,48880
424,72,49217,6,0,B|456:128|392:152,2,90,0|8|8
208,72,50565,2,0,B|152:112|216:152,2,90,0|8|8
208,288,51914,1,0
128,216,52251,1,8
208,288,52588,1,8
256,192,53262,12,0,54273
416,72,54610,5,8
200,72,55284,1,8
416,136,55959,1,8
200,136,56633,1,8
416,200,57307,1,8
200,200,57981,1,8
416,264,58655,1,8
200,264,59329,1,8
176,48,60003,6,0,B|72:128|192:200,1,180
256,120,61015,2,0,B|352:200|240:280,1,180
176,192,62026,2,0,B|88:272|184:352,1,180
248,264,63037,2,0,B|328:184|232:104,1,180
256,192,64048,12,0,65397
416,72,65734,5,0
304,72,66071,1,0
360,160,66408,2,2,B|160:160,1,180
120,248,67419,1,0
224,248,67756,1,0
176,344,68093,2,2,B|360:344,1,180
256,192,69442,12,0,71127
256,56,71801,5,0
256,56,72138,2,2,B|176:112|328:160|208:224,1,180
224,320,73150,1,0
224,320,73487,1,8
224,320,73824,1,8
408,200,74498,6,0,B|304:200,1,90
228,200,75172,2,0,B|324:200,1,90,0|0
320,88,75846,1,0
320,88,76183,1,0
208,88,76520,6,2,B|88:136|168:248,2,180
312,88,78206,1,0
232,160,78543,1,0
312,224,78880,1,0
232,304,79217,1,8
152,224,79554,1,8
256,192,80228,12,0,81577
256,72,81914,5,0
256,176,82251,1,0
256,280,82588,2,2,B|144:280|144:160,2,180
360,280,84273,1,0
432,200,84610,1,0
352,128,84947,1,0
272,200,85284,2,2,B|88:200,2,180
376,200,86970,1,0
256,192,87307,12,4,89329
96,320,101127,5,0
96,320,101464,1,0
96,320,101801,2,2,B|208:320|208:192,1,180
208,96,102812,1,8
208,96,103150,1,8
424,96,103824,5,0
424,96,104161,1,0
424,96,104498,2,2,B|424:224|320:224,1,180
216,224,105509,2,0,B|152:296,2,90,0|8|8
216,112,106520,5,0
136,184,106857,2,0,B|64:256,1,90
160,296,107532,1,0
248,232,107869,2,0,B|320:152,2,90,0|8|8
104,72,109217,5,0
104,72,109554,1,0
104,72,109891,1,0
104,72,110228,2,2,B|64:80|24:112|8:160|8:216|56:256|120:256|176:240|200:184|160:144,1,360
280,160,111914,5,0
280,264,112251,2,2,B|280:368,2,90
280,160,113262,1,0
280,160,113599,1,8
280,160,113936,1,8
64,160,114610,5,0
168,160,114947,2,2,B|232:64|336:64|392:176,1,270
280,160,116296,2,0,B|280:272,2,90,0|8|8
280,48,117307,5,0
168,48,117644,1,0
88,120,117981,2,0,B|32:224|136:336|216:280,1,270
280,208,119329,1,8
280,208,119666,1,8
280,96,120003,5,2
280,96,120341,1,2
376,48,120678,2,0,B|464:104|448:256|360:272,1,270
256,272,122026,5,0
144,272,122363,1,8
200,176,122700,1,8
416,176,123374,1,0
472,80,123711,1,8
360,80,124048,1,8
144,80,124723,2,0,B|48:80,2,90,0|8|8
256,192,126071,12,0,127082
424,80,127419,5,0
424,184,127756,1,8
424,80,128093,1,8
208,80,128768,2,0,B|136:128|176:216|240:200,1,180
456,200,130116,1,0
400,288,130453,1,8
288,288,130790,1,8
256,192,131464,12,0,132475
88,48,132812,5,8
304,48,133487,1,8
88,112,134161,1,8
304,112,134835,1,8
88,176,135509,1,8
304,176,136183,1,8
88,240,136857,1,8
304,240,137532,1,8
232,48,138206,5,0
136,88,138543,2,0,B|144:192|320:192|328:80,2,270
232,48,140902,1,2
232,48,141239,1,2
256,192,141914,12,0,143599
88,56,143936,5,0
88,56,144273,2,2,B|40:80|16:112|24:152|56:192|112:208|152:176|160:144|144:112,1,270
256,120,145621,2,0,B|256:24,2,90
256,224,146633,1,8
256,224,146970,1,8
256,192,147644,12,0,149666
424,72,150003,5,0
424,176,150341,2,2,B|352:112|240:112|168:192,1,270
176,288,151689,1,8
176,288,152026,1,8
392,288,152700,6,0,B|392:184,1,90
288,240,153374,2,0,B|288:128,1,90
192,192,154048,2,0,B|192:80,1,90
96,144,154723,5,0
96,144,155060,1,0
96,144,155397,2,0,B|40:240|96:320|216:312|208:216,1,270
208,128,156745,2,0,B|208:24,2,90,0|0|8
312,128,157756,1,8
256,192,158430,12,0,159779
416,72,160116,5,0
304,72,160453,1,0
360,160,160790,2,0,B|360:264,2,90,0|8|8
72,304,162475,5,0
176,304,162812,1,0
128,200,163150,2,0,B|72:160|72:88|144:40,1,180
208,128,164161,1,0
312,128,164498,1,0
392,56,164835,2,0,B|448:96|448:168|376:216,1,180
256,192,165846,12,4,168206
