osu file format v9

[General]
AudioFilename: Lonely In Gorgeous.mp3
AudioLeadIn: 2000
PreviewTime: 58182
Countdown: 0
SampleSet: Normal
StackLeniency: 0.7
Mode: 0
LetterboxInBreaks: 0

[Editor]
Bookmarks: 95346
DistanceSpacing: 1.2
BeatDivisor: 4
GridSize: 4

[Metadata]
Title:Lonely in Gorgeous
Artist:Tommy February6
Creator:Beren
Version:Paradise Kiss
Source:Paradise Kiss
Tags:Kiiwa BakaHuang TTTTTTTTTTTT tutuhaha Tomoko kawase the brilliant green Tommy Heavenly6

[Difficulty]
HPDrainRate:7
CircleSize:4
OverallDifficulty:7
ApproachRate:8
SliderMultiplier:2.2
SliderTickRate:1

[Events]
//Background and Video events
0,0,"BG.jpg"
//Break Periods
2,92859,94595
//Storyboard Layer 0 (Background)
//Storyboard Layer 1 (Fail)
//Storyboard Layer 2 (Pass)
//Storyboard Layer 3 (Foreground)
//Storyboard Sound Samples
//Background Colour Transformations
3,100,163,162,255

[TimingPoints]
868,447.761194029851,4,1,1,50,1,0
980,-100,4,2,1,50,0,0
29525,-100,4,2,0,50,0,0
29749,-100,4,2,1,50,0,0
33107,-100,4,2,0,50,0,0
33331,-100,4,2,1,50,0,0
36689,-100,4,2,0,50,0,0
37137,-100,4,2,1,50,0,0
40271,-100,4,2,2,50,0,0
40495,-100,4,2,1,50,0,0
43853,-100,4,2,0,50,0,0
49226,-100,4,2,1,50,0,0
50346,-100,4,2,0,50,0,0
50794,-100,4,2,1,50,0,0
51018,-100,4,2,0,50,0,0
56391,-100,4,2,1,50,0,0
57398,-100,4,2,1,55,0,0
57510,-100,4,2,1,60,0,0
57622,-100,4,2,1,65,0,0
57734,-100,4,2,1,70,0,0
57846,-100,4,2,0,70,0,0
57958,-100,4,2,0,75,0,0
58070,-100,4,2,1,80,0,0
58182,-100,4,2,2,80,0,0
58518,-100,4,2,1,50,0,0
61764,-100,4,2,0,60,0,0
61876,-100,4,2,1,50,0,0
65346,-100,4,2,0,60,0,0
65458,-100,4,2,1,50,0,0
68928,-100,4,2,0,60,0,0
69040,-100,4,2,1,50,0,0
70719,-100,4,2,0,60,0,0
70831,-100,4,2,1,50,0,0
71726,-100,4,2,1,55,0,0
71838,-100,4,2,1,60,0,0
71950,-100,4,2,1,65,0,0
72062,-100,4,2,1,70,0,0
72174,-100,4,2,0,70,0,0
72286,-100,4,2,0,75,0,0
72398,-100,4,2,1,80,0,0
72510,-100,4,2,2,80,0,0
72958,-100,4,2,1,50,0,0
76092,-100,4,2,2,60,0,0
76316,-100,4,2,1,50,0,0
79674,-100,4,2,2,60,0,0
80010,-100,4,2,1,50,0,0
83256,-100,4,2,2,60,0,0
83704,-100,4,2,1,50,0,0
85047,-100,4,2,2,60,0,0
85383,-100,4,2,1,50,0,0
86055,-100,4,2,1,55,0,0
86167,-100,4,2,1,60,0,0
86279,-100,4,2,1,65,0,0
86391,-100,4,2,1,70,0,0
86503,-100,4,2,0,70,0,0
86615,-100,4,2,0,75,0,0
86726,-100,4,2,1,80,0,0
86838,-100,4,2,2,80,0,0
87286,-100,4,2,1,50,0,0
89637,-100,4,2,1,55,0,0
89749,-100,4,2,1,60,0,0
89861,-100,4,2,1,65,0,0
89973,-100,4,2,1,70,0,0
90085,-100,4,2,0,20,0,0
90197,-100,4,2,0,75,0,0
90309,-100,4,2,1,80,0,0
90421,-100,4,2,0,80,0,0
90868,-100,4,2,0,5,0,0
95346,-100,4,2,1,50,0,0
97473,-100,4,1,1,50,0,0
97697,-100,4,2,1,50,0,0
101167,-100,4,1,1,50,0,0
101279,-100,4,2,1,50,0,0
104637,-100,4,1,1,50,0,0
104861,-100,4,2,1,50,0,0
108331,-100,4,1,1,50,0,0
108443,-100,4,2,1,50,0,0
111801,-100,4,2,0,50,0,0
112025,-100,4,2,1,30,0,0
112249,-100,4,2,0,50,0,0
112473,-100,4,2,1,30,0,0
112697,-100,4,2,0,50,0,0
113032,-100,4,2,1,50,0,0
113480,-100,4,2,0,50,0,0
113816,-100,4,2,1,30,0,0
114040,-100,4,2,0,50,0,0
114264,-100,4,2,1,30,0,0
114488,-100,4,2,0,50,0,0
114712,-100,4,2,1,50,0,0
115271,-100,4,2,0,50,0,0
115607,-100,4,2,1,30,0,0
115831,-100,4,2,0,50,0,0
116055,-100,4,2,1,30,0,0
116279,-100,4,2,0,50,0,0
116615,-100,4,2,1,50,0,0
118965,-100,4,2,0,50,0,0
119189,-100,4,2,1,30,0,0
119413,-100,4,2,0,50,0,0
119637,-100,4,2,1,30,0,0
119861,-100,4,2,0,50,0,0
120197,-100,4,2,1,50,0,0
120644,-100,4,2,0,50,0,0
120980,-100,4,2,1,30,0,0
121204,-100,4,2,0,50,0,0
121428,-100,4,2,1,30,0,0
121652,-100,4,2,0,50,0,0
121876,-100,4,2,1,50,0,0
122435,-100,4,2,0,50,0,0
122771,-100,4,2,1,30,0,0
122995,-100,4,2,0,50,0,0
123219,-100,4,2,1,30,0,0
123443,-100,4,2,0,50,0,0
123779,-100,4,2,1,50,0,0
126241,-100,4,1,1,50,0,0
126353,-100,4,2,1,50,0,0
129712,-100,4,1,1,50,0,0
129935,-100,4,2,1,50,0,0
133294,-100,4,1,1,50,0,0
133518,-100,4,2,1,50,0,0
136988,-100,4,1,1,50,0,0
137100,-100,4,2,1,50,0,0
140570,-100,4,1,1,50,0,0
140682,-100,4,2,1,50,0,0
144040,-100,4,1,1,50,0,0
144264,-100,4,2,1,50,0,0
147622,-100,4,1,1,50,0,0
147846,-100,4,2,1,50,0,0
151204,-100,4,1,1,50,0,0
151428,-100,4,2,1,50,0,0
153107,-100,4,1,1,50,0,0
153219,-100,4,2,1,50,0,0
154898,-100,4,1,1,50,0,0
155010,-100,4,2,1,50,0,0
156689,-100,4,1,1,50,0,0
156801,-100,4,2,1,50,0,0
158480,-100,4,1,1,50,0,0
158592,-100,4,2,1,50,0,0
165532,-100,4,1,1,50,0,0
165756,-100,4,2,1,50,0,0
172808,-100,4,2,1,30,0,0

[Colours]
Combo1 : 101,141,201
Combo2 : 172,172,89
Combo3 : 133,196,96
Combo4 : 64,128,128
Combo5 : 143,175,33
Combo6 : 216,156,116
Combo7 : 202,168,87
Combo8 : 184,148,175

[HitObjects]
16,160,420,5,4
112,232,644,1,0
152,248,756,1,0
184,256,868,6,0,B|240:276|312:264|352:208|352:152,1,220,4|12
351,163,1539,1,0
328,260,1763,2,0,B|324:320|368:368|432:376,1,165,10|0
468,352,2211,2,0,B|432:276|284:296|284:392,1,220,12|10
24,320,3106,6,0,B|152:296,1,110,12|0
208,192,3554,2,0,B|80:216,1,110,8|0
179,100,4002,2,0,B|288:80,1,110,12|0
376,64,4450,1,10
288,80,4673,1,0
352,144,4897,6,0,B|408:192|384:272,1,110,12|0
376,328,5345,2,0,B|352:376|272:400|208:352|208:304,1,220,8|12
207,303,6017,1,0
16,144,6241,6,0,B|69:174|69:174|117:174,1,110,10|0
173,86,6688,2,0,B|285:86,1,110,12|0
368,144,7136,1,2
408,144,7248,1,2
448,144,7360,5,4
173,86,7584,1,4
440,368,8032,6,0,B|392:344|416:288|456:288|496:328,1,110,8|0
336,360,8479,2,0,B|272:396|231:388|168:368|156:300,2,220,12|8|8
256,288,9599,1,0
156,304,9823,2,0,B|104:280|32:304|15:355,1,165,8|0
12,304,10270,6,0,B|4:184,1,110,10|0
96,72,10718,2,0,B|104:192,1,110,8|0
200,320,11166,2,0,B|192:200,1,110,8|0
296,312,11614,6,0,B|352:280|456:304|480:384,2,220,10|12|8
296,312,12733,1,0
464,248,12957,2,0,B|504:232|504:152|456:148,1,110,8|0
304,32,13405,6,0,B|320:72|320:72|400:72,1,110,8|0
248,136,13853,2,0,B|128:136,1,110,8|0
16,216,14300,1,2
72,208,14412,1,2
120,232,14524,1,4
136,288,14636,1,0
120,344,14748,6,0,B|112:384|32:376|80:288|136:336,1,110
348,331,15196,1,14
136,288,15420,5,0
240,320,15644,1,12
304,232,15868,1,0
240,144,16091,2,0,B|200:96|208:32,1,110,8|0
136,176,16539,5,12
207,41,16763,1,0
352,72,16987,2,0,B|420:68|456:116|472:181|440:240,1,220,8|12
446,229,17659,2,0,B|402:172|402:117|430:68|502:47,1,220,0|0
368,304,18330,5,12
368,304,18554,1,10
192,352,18778,5,8
96,320,19002,2,0,B|40:304|16:248,1,110,0|12
192,352,19450,1,0
96,136,19673,6,0,B|73:192|101:243,1,110,8|0
192,352,20121,2,0,B|228:412|344:400|376:368|384:312,1,220,12|8
448,200,20793,1,0
448,200,21017,2,0,B|448:144|536:168|496:232|480:224,1,110,4|0
440,280,21465,5,8
364,296,21688,1,0
324,228,21912,1,12
376,172,22136,1,10
288,328,22360,6,0,B|248:376|160:368|96:320|120:248,1,220,8|12
152,192,23032,1,0
115,278,23256,1,8
40,336,23479,2,0,B|8:344|-16:320,2,55,0|0|12
115,278,23927,1,0
208,256,24151,6,0,B|264:224|352:240|392:288,1,165,8|0
392,280,24599,2,0,B|440:320|440:384,1,110,12|0
352,360,25047,1,12
392,280,25270,1,10
464,224,25494,2,0,B|416:184|440:104,1,110,8|0
512,56,25942,6,0,B|488:120|392:136|328:88|328:48,1,220,8|12
424,32,26614,1,0
331,63,26838,2,0,B|288:16|200:24|144:96|184:144,1,220,8|12
264,128,27509,1,0
86,126,27733,5,8
174,127,27957,2,0,B|216:160|216:160|264:128,1,110,0|12
398,77,28405,5,0
352,153,28629,2,0,B|303:173|303:173|307:230,1,110,8|0
283,372,29076,5,12
240,292,29300,2,0,B|248:240|248:240|196:215,1,110,10|4
199,366,29748,5,2
240,292,29972,1,14
283,372,30196,1,2
320,304,30420,2,0,B|336:248|416:232|476:264|484:324,2,220,10|12|8
400,336,31539,5,0
496,200,31763,1,12
384,128,31987,2,0,B|360:80|384:16,2,110,0|8|0
472,76,32659,2,0,B|428:20|316:24|288:100,1,220,12|4
196,64,33330,5,2
120,128,33554,1,14
168,216,33778,1,2
268,204,34002,2,0,B|324:160|404:196|428:252|412:300,1,220,10|12
316,292,34673,1,0
168,216,34897,1,8
168,216,35345,5,12
88,268,35569,2,0,B|32:300|32:356,2,110,0|8|0
168,216,36241,2,0,B|214:175|294:167|358:183|398:215,1,220,12|4
208,32,37136,5,12
128,104,37360,2,0,B|80:144|16:128,1,110,0|8
120,16,37808,1,0
208,32,38032,2,0,B|248:-16|352:-8|416:32|392:112,1,220,8|8
488,56,38703,1,0
394,64,38927,1,12
312,88,39151,1,0
494,243,39375,6,0,B|416:184|416:184|394:64,1,220,8|12
394,64,40047,1,0
320,160,40270,6,0,B|344:288,1,110,4|0
248,328,40718,2,0,B|224:200,1,110,12|0
139,275,41166,2,0,B|160:384,1,110,8|0
160,384,41614,5,12
248,328,41838,1,0
340,268,42062,1,8
340,268,42509,1,12
340,268,42957,1,8
340,268,43405,5,12
356,228,43517,1,0
372,188,43629,1,2
388,148,43741,1,0
404,108,43853,5,6
392,20,44076,1,2
304,8,44300,1,2
264,88,44524,1,0
328,148,44748,1,2
340,76,45196,5,8
70,346,45644,5,2
188,316,45868,1,2
192,196,46091,1,2
80,152,46315,1,0
4,248,46539,1,2
106,253,46763,5,8
106,253,46987,1,8
392,304,47435,5,2
480,204,47659,1,2
352,232,47882,1,2
472,288,48106,1,0
408,172,48330,1,2
420,240,48778,5,8
205,182,49226,6,0,B|141:166|125:102,1,110,2|0
296,144,49673,2,0,B|320:96|296:32|264:32,1,110,2|0
184,24,50121,1,2
205,182,50345,5,8
296,144,50569,1,8
392,128,50793,1,2
424,128,50905,1,2
456,136,51017,5,4
504,208,51241,1,2
468,288,51465,1,2
384,288,51688,1,2
332,216,51912,1,2
368,136,52360,5,8
208,296,52808,5,2
88,272,53032,1,2
64,152,53256,1,2
152,68,53479,1,2
268,100,53703,1,2
296,216,53927,5,8
296,216,54151,1,8
492,96,54599,5,2
344,68,54823,1,2
472,24,55047,1,2
380,128,55270,1,2
400,20,55494,1,2
448,156,55942,5,8
296,264,56390,6,0,B|200:280|184:368,1,165,2|0
160,336,56838,2,0,B|24:336,1,110,10|0
8,192,57285,1,10
40,152,57397,1,2
84,132,57509,1,2
132,136,57621,1,2
180,136,57733,5,10
228,124,57845,1,0
272,100,57957,1,2
288,52,58069,1,2
332,28,58181,6,0,B|380:-12|484:-20|428:84|380:28,1,165,4|0
288,52,58629,2,0,B|216:76|152:36,1,110,10|0
40,152,59076,2,0,B|24:216|64:276|144:272|180:248,1,220,10|2
296,168,59748,1,0
440,216,59972,6,0,B|428:177|462:169|499:169|523:220|459:231|427:296,1,165,10|0
446,267,60420,1,2
304,288,60644,2,0,B|264:336|184:328|168:280,1,110,0|10
23,296,61091,2,0,B|72:264|144:296,1,110,0|2
304,288,61539,1,0
112,152,61763,6,0,B|192:112|200:0|168:-16|120:32|160:80,1,220,4|2
64,48,62435,1,0
216,128,62659,2,0,B|272:176|344:160,1,110,10|0
416,152,63106,2,0,B|475:144|529:81,1,110,2|0
480,312,63554,6,0,B|448:368|508:380|528:352|520:296|520:240|480:216,1,220,10|2
384,288,64226,2,0,B|320:288|264:336|256:384,1,165
224,360,64673,2,0,B|88:360,1,110,0|2
24,192,65345,6,0,B|80:208|160:160|200:88|152:32,1,220,4|2
24,64,66017,2,0,B|104:0|191:19|272:32|304:152,1,330,0|2
432,232,66912,1,0
432,232,67136,2,0,B|448:280|400:320|352:280|416:200,1,165,10|0
432,168,67584,2,0,B|456:120|464:80|448:32,1,110,2|0
352,96,68032,2,0,B|320:48|224:56|176:112|192:160,1,220,10|2
32,272,68927,6,0,B|152:216,1,110,4|0
190,153,69375,1,0
190,153,69487,1,0
190,153,69599,1,0
224,236,69823,2,0,B|245:288|313:312|373:288|373:288|349:268|321:280,1,220,10|2
304,384,70494,5,0
344,192,70718,2,0,B|344:128|384:80|432:48|496:56,1,220,4|2
485,55,71390,1,0
344,88,71614,1,10
296,112,71726,1,2
240,112,71838,1,2
192,88,71950,1,2
176,32,72062,5,10
128,48,72173,1,0
92,80,72285,1,2
72,124,72397,1,2
72,172,72509,6,0,B|50:232|80:288|125:327|220:312,1,220,4|10
336,240,73181,1,0
504,272,73405,2,0,B|480:320|504:392,1,110,2|0
500,379,73741,1,0
500,379,73853,1,10
504,272,74076,1,0
488,160,74300,6,0,B|496:56|436:4,1,165,2|0
400,32,74748,2,0,B|472:24|512:48,1,110,10|0
296,88,75196,2,0,B|272:144|208:152|120:136|112:72,1,220,2|10
16,32,75867,1,0
115,85,76091,6,0,B|131:229,1,110,4|0
248,336,76539,2,0,B|232:192,1,110,10|0
376,368,76987,2,0,B|384:320|472:280|512:304,1,165,2|0
509,302,77435,1,10
248,336,77659,5,0
112,248,77882,2,0,B|96:184|120:128,1,110,2|0
232,16,78330,2,0,B|248:80|224:136,1,110,10|0
112,248,78778,2,0,B|160:208|220:196|276:212|328:256,1,220,2|10
344,268,79338,1,0
368,288,79450,1,0
512,368,79673,6,0,B|440:320|488:224|544:288|504:320,1,165,4|0
480,224,80121,2,0,B|432:168|448:88,1,110,10|0
464,16,80569,2,0,B|430:-23|357:-17|296:16|290:71|311:118,1,220,2|10
302,84,81241,1,0
288,200,81465,6,0,B|328:240|296:288|248:272|224:232|280:216|248:168|176:144,1,220,2|10
176,240,82136,2,0,B|120:208|48:248,1,110,0|2
70,238,82584,2,0,B|8:276|19:340,1,110,0|10
112,328,83032,1,0
296,296,83256,6,0,B|368:256|464:296|472:372,1,220,4|10
471,367,83815,1,0
471,367,83927,1,0
368,368,84151,2,0,B|464:152,1,220,2|10
504,64,84823,1,0
384,96,85047,6,0,B|336:128|240:104|224:40,1,165,4|0
184,24,85494,2,0,B|120:-8|72:8,1,110,10|0
32,100,85942,1,2
80,112,86054,1,2
128,104,86166,1,2
164,68,86278,1,2
184,24,86390,5,2
232,20,86502,1,2
280,36,86614,1,2
312,72,86726,1,2
336,116,86838,6,0,B|392:160|388:202|392:277|331:331,1,220,4|10
196,368,87509,1,0
264,312,87733,2,0,B|323:286|380:313|396:373,1,165,2|0
395,370,88181,1,10
196,368,88629,6,0,B|132:224,1,110,2|0
64,192,89076,2,0,B|0:48,1,110,10|0
128,40,89524,1,2
184,24,89636,1,2
240,32,89748,1,2
288,64,89860,1,2
312,104,89972,5,2
296,144,90084,1,0
256,152,90196,1,0
240,128,90308,1,2
256,104,90420,1,6
256,192,90867,12,0,92659
408,32,95345,5,8
444,192,95793,2,0,B|452:228|452:228|380:200|380:200,1,110,4|0
292,164,96241,2,0,B|189:125,1,110,8|0
112,40,96688,1,4
116,88,96800,1,2
84,124,96912,1,2
36,144,97024,1,2
8,184,97136,2,0,B|-16:240|20:292,1,110,8|0
176,376,97584,5,4
304,268,97808,1,0
276,364,98032,1,8
216,216,98256,1,0
144,284,98479,2,0,B|92:304|24:288|4:224,1,165,2|0
0,172,98927,2,0,B|52:208|32:276,1,110,8|0
216,216,99375,6,0,B|204:278|134:287,1,110,2|0
124,108,99823,1,8
388,108,100047,1,0
272,320,100270,2,0,B|292:384|220:372|228:344|240:312,1,110,2|0
256,180,100718,2,0,B|224:132|280:92|324:128|320:176|272:184,1,165,8|0
256,212,101166,6,0,B|232:264|164:272,1,110,4|0
160,156,101614,1,8
284,344,101838,1,0
340,264,102062,2,0,B|364:212|432:204,1,110,2|0
256,212,102509,2,0,B|200:184|188:116|216:64,1,165,8|0
172,120,102957,6,0,B|148:172|80:180,1,110,2|0
80,80,103405,1,8
56,268,103629,1,0
224,180,103853,2,0,B|248:132|248:132|276:184|340:184,1,165,2|0
388,188,104300,2,0,B|452:192|484:136,1,110,8|0
500,44,104748,5,4
224,180,104972,2,0,B|160:176|128:232,1,110,0|8
96,316,105420,1,0
192,308,105644,2,0,B|176:224|116:204|40:216|24:260,1,220,2|8
96,316,106315,1,0
164,140,106539,6,0,B|212:36,1,110,2|0
408,48,106987,1,8
300,112,107211,1,0
320,236,107435,2,0,B|315:293|361:348|424:347,1,165,2|0
344,348,107882,2,0,B|160:368,1,165,8|0
132,372,108330,5,4
56,308,108554,1,0
148,272,108778,1,8
72,208,109002,1,0
112,108,109226,5,8
220,124,109673,1,8
232,224,110121,2,0,B|292:256|296:328|296:328|340:308|344:248,1,220,8|0
372,160,110793,2,0,B|372:100|416:60,1,110,8|2
414,63,111465,2,0,B|375:105|311:97,1,110,8|8
132,64,111912,5,2
96,156,112136,1,2
192,140,112360,1,2
156,232,112584,1,2
252,216,112808,1,2
64,244,113256,5,4
384,228,113703,5,2
388,328,113927,1,2
472,276,114151,1,2
400,220,114375,1,2
377,317,114599,1,2
476,292,114823,5,4
476,292,115047,1,4
404,52,115494,5,2
296,48,115718,1,2
184,92,115942,1,2
100,196,116166,1,2
68,336,116390,1,2
68,336,116838,5,4
224,212,117285,6,0,B|220:276|296:312|348:276,1,165,2|0
388,260,117733,2,0,B|448:260|480:208|480:208|460:268|496:320,1,220,8|2
404,356,118405,5,4
404,356,118629,1,4
316,184,118853,1,2
120,64,119076,5,2
164,256,119300,1,2
240,72,119524,1,2
72,176,119748,1,2
268,192,119972,1,2
172,152,120420,5,4
432,264,120867,5,2
304,332,121091,1,2
304,192,121315,1,2
388,332,121539,1,2
264,264,121763,1,2
388,192,121987,5,4
388,192,122211,1,4
76,66,122659,5,2
178,243,122882,1,2
39,205,123106,1,2
216,104,123330,1,2
128,156,123554,1,2
128,156,124002,5,4
412,348,124450,6,0,B|364:292|404:224|404:224|416:252,1,165,2|0
352,244,124897,2,0,B|296:236|272:172,1,110,8|0
260,24,125345,1,2
252,68,125457,1,2
228,104,125569,1,2
192,128,125681,1,2
152,140,125793,5,10
116,168,125905,1,2
92,204,126017,1,2
88,252,126129,1,2
104,292,126241,6,0,B|128:344|200:360|252:340,1,165,4|0
288,320,126688,2,0,B|328:280|392:296,1,110,8|0
432,316,127024,1,0
420,272,127136,2,0,B|396:160,1,110,2|0
268,40,127584,2,0,B|303:203,1,165,8|0
280,240,128032,6,0,B|253:114,1,110,2|0
128,52,128479,1,8
128,52,128591,1,0
128,52,128703,2,0,B|134:87|134:87|74:127,1,110,0|2
88,260,129151,2,0,B|28:248|28:312|84:312,1,110,0|8
212,312,129599,1,0
292,208,129823,6,0,B|300:148|356:104|416:108,1,165,4|0
340,96,130270,2,0,B|284:72|280:4,1,110,8|0
217,97,130718,2,0,B|209:165|125:177|77:121|101:61|133:49,1,220,2|8
280,196,131390,6,0,B|248:240|188:248,1,110,0|2
60,212,131838,1,0
188,248,132062,1,8
252,364,132285,1,0
320,248,132509,2,0,B|356:200|412:212|480:204|512:268,1,220,2|8
408,352,133181,1,0
320,248,133405,6,0,B|272:208|268:136|300:88,1,165,4|0
252,148,133853,2,0,B|216:188|152:184,1,110,8|0
56,156,134300,2,0,B|10:127|3:63,1,110,2|0
148,40,134748,1,8
80,248,134972,6,0,B|40:364,1,110,0|2
188,240,135420,2,0,B|176:276|176:276|244:324,1,110,0|8
320,368,135867,1,0
320,268,136091,1,2
456,92,136315,1,0
360,120,136539,2,0,B|304:124|248:80|248:24,1,165,8|0
228,68,136987,6,0,B|184:168,1,110
32,320,137435,2,0,B|76:220,1,110,8|0
168,264,137882,2,0,B|220:296|220:296|236:244|300:236,1,165,2|0
348,228,138330,2,0,B|408:228|448:180,1,110,8|0
228,68,138778,6,0,B|168:68|128:116,1,110,6|0
40,208,139226,1,8
56,340,139450,1,0
168,264,139673,1,2
196,304,139785,1,2
240,328,139897,1,2
288,336,140009,1,2
336,332,140121,1,8
420,56,140345,5,2
384,92,140457,1,2
368,140,140569,2,0,B|348:192|380:264|432:276,1,165,4|0
380,276,141017,2,0,B|324:280|324:280|340:344,1,110,8|0
244,236,141465,2,0,B|180:192|140:216|84:216|56:288,1,220,2|8
172,352,142136,1,0
136,216,142360,6,0,B|111:108,1,110,2|0
88,20,142808,1,8
232,68,143032,1,0
260,112,143144,1,0
304,136,143256,2,0,B|344:172|424:172|464:136,1,165,2|0
480,96,143703,2,0,B|428:200,1,110,8|0
368,332,144151,6,0,B|412:312|396:256|348:264,1,110,4|0
220,300,144599,2,0,B|148:324|96:304|56:272|48:200,1,220,8|2
80,20,145270,2,0,B|100:76|68:128,1,110,0|8
0,240,145718,1,0
132,244,145942,6,0,B|192:248|224:308,1,110,2|0
112,376,146390,1,8
132,244,146614,2,0,B|152:136,1,110,0|2
280,44,147062,2,0,B|260:152,1,110,0|8
244,252,147509,1,0
352,328,147733,6,0,B|364:276|448:256|492:296,1,165,4|0
444,244,148181,2,0,B|412:200|432:140,1,110,8|0
484,56,148629,1,2
280,44,148853,1,0
168,112,149076,2,0,B|128:152|68:148,1,110,8|0
280,44,149524,6,0,B|320:4|380:8,1,110,2|0
484,56,149972,1,8
316,172,150196,1,0
448,184,150420,1,2
368,292,150644,2,0,B|328:332|268:328,1,110,0|8
10,205,151315,6,0,B|2:261|46:317|110:313,1,165,4|0
162,323,151763,2,0,B|214:299|274:331,1,110,8|0
396,356,152211,2,0,B|400:296|456:268,1,110,2|0
468,52,152659,2,0,B|492:104|448:180|400:188,1,165,8|0
364,164,153106,6,0,B|396:208|396:208|376:264,1,110,4|0
268,336,153554,2,0,B|236:292|236:292|256:236,1,110,8|0
336,72,154002,1,2
288,88,154114,1,2
240,96,154226,1,2
192,84,154338,1,2
156,52,154450,5,10
108,68,154562,1,2
68,100,154673,1,2
48,144,154785,1,2
48,192,154897,6,0,B|28:244|47:305|101:332,1,165,4|0
56,356,155345,2,0,B|164:296,1,110,8|0
376,288,155793,2,0,B|268:348,1,110,2|0
292,244,156241,2,0,B|268:184|300:128|368:124,1,165,8|0
316,108,156688,6,0,B|264:84|264:16,1,110,4|0
448,140,157136,2,0,B|500:164|500:232,1,110,8|0
468,324,157584,5,2
424,304,157696,1,2
376,296,157808,1,2
328,304,157920,1,2
288,332,158032,5,10
240,344,158144,1,2
192,344,158256,1,2
144,328,158367,1,2
108,292,158479,6,0,B|64:256|68:192,1,110,4|0
92,96,158927,1,8
160,168,159151,1,0
252,136,159375,1,2
244,36,159599,1,0
148,8,159823,6,0,B|160:76|60:136|-16:104,1,220,8|2
32,196,160494,1,0
80,284,160718,2,0,B|96:344|168:352,1,110,8|0
172,252,161166,2,0,B|215:208|186:141,1,110,2|2
100,188,161614,2,0,B|40:171|-2:230,1,110,8|0
172,252,162062,5,2
264,216,162285,1,0
332,288,162509,1,8
272,368,162733,1,0
176,348,162957,2,0,B|116:356|84:300,1,110,2|0
264,216,163405,2,0,B|324:208|356:264,1,110,8|0
388,356,163853,5,2
356,264,164076,1,0
416,184,164300,1,8
456,276,164524,1,0
356,264,164748,2,0,B|304:232|316:164,1,110,2|2
456,276,165196,2,0,B|452:344|352:396|276:336,1,220,8|4
192,308,165867,6,0,B|144:276|84:292,1,110,0|2
4,348,166315,1,0
86,291,166539,2,0,B|136:248|152:144|96:80,1,220,2|8
168,168,167211,6,0,B|196:220|264:208,1,110,0|2
352,168,167659,1,0
352,68,167882,1,8
260,108,168106,1,0
260,208,168330,1,2
440,120,168554,1,2
428,320,168778,6,0,B|384:268|256:280|224:360,1,220,8|2
280,256,169450,2,0,B|340:160,1,110,0|8
392,80,169897,1,0
128,80,170121,1,2
128,80,170569,1,8
76,272,171017,6,0,B|64:216|92:164,1,110,2|0
232,36,171465,2,0,B|244:92|216:144,1,110,8|0
196,240,171912,1,2
268,312,172136,1,2
426,275,172360,2,0,B|441:227|384:180|347:178|305:248|365:303|404:252,1,220,10|8
