osu file format v9

[General]
AudioFilename: Lonely In Gorgeous.mp3
AudioLeadIn: 2000
PreviewTime: 58182
Countdown: 0
SampleSet: Soft
StackLeniency: 0.7
Mode: 0
LetterboxInBreaks: 0

[Editor]
DistanceSpacing: 0.9
BeatDivisor: 4
GridSize: 4

[Metadata]
Title:Lonely in Gorgeous
Artist:Tommy February6
Creator:Beren
Version:Normal
Source:Paradise Kiss
Tags:Kiiwa BakaHuang TTTTTTTTTTTT tutuhaha Tomoko kawase the brilliant green Tommy Heavenly6

[Difficulty]
HPDrainRate:4
CircleSize:4
OverallDifficulty:4
ApproachRate:5
SliderMultiplier:1.4
SliderTickRate:1

[Events]
//Background and Video events
0,0,"BG.jpg"
//Break Periods
2,92859,96384
//Storyboard Layer 0 (Background)
//Storyboard Layer 1 (Fail)
//Storyboard Layer 2 (Pass)
//Storyboard Layer 3 (Foreground)
//Storyboard Sound Samples
//Background Colour Transformations
3,100,163,162,255

[TimingPoints]
868,447.761194029851,4,2,1,50,1,0
868,-100,4,1,1,50,0,0
980,-100,4,2,1,50,0,0
14973,-100,4,2,2,50,0,0
15421,-100,4,2,1,50,0,0
29525,-100,4,2,2,50,0,0
29749,-100,4,2,1,50,0,0
33107,-100,4,2,2,50,0,0
33331,-100,4,2,1,50,0,0
36689,-100,4,2,2,50,0,0
37137,-100,4,2,1,50,0,0
40271,-100,4,2,2,50,0,0
40495,-100,4,2,1,50,0,0
43853,-100,4,2,2,50,0,0
45197,-100,4,2,1,50,0,0
45644,-100,4,2,2,50,0,0
46764,-100,4,2,1,50,0,0
47435,-100,4,2,2,50,0,0
48779,-100,4,2,1,50,0,0
51018,-100,4,2,2,50,0,0
52361,-100,4,2,1,50,0,0
52585,-100,4,2,2,50,0,0
53928,-100,4,2,1,50,0,0
54600,-100,4,2,2,50,0,0
55943,-100,4,2,1,50,0,0
58182,-100,4,2,2,50,0,0
58629,-100,4,2,1,50,0,0
61764,-100,4,2,2,50,0,0
61988,-100,4,2,1,50,0,0
65346,-100,4,2,2,50,0,0
65570,-100,4,2,1,50,0,0
68928,-100,4,2,2,50,0,0
69152,-100,4,2,1,50,0,0
70719,-100,4,2,2,50,0,0
70943,-100,4,2,1,50,0,0
72510,-100,4,2,2,50,0,0
72734,-100,4,2,1,50,0,0
76092,-100,4,2,2,50,0,0
76316,-100,4,2,1,50,0,0
79674,-100,4,2,2,50,0,0
79898,-100,4,2,1,50,0,0
83256,-100,4,2,2,50,0,0
83480,-100,4,2,1,50,0,0
86838,-100,4,2,2,50,0,0
87286,-100,4,2,1,50,0,0
90421,-100,4,2,2,50,0,0
90532,-100,4,2,2,5,0,0
97585,-100,4,2,2,50,0,0
97809,-100,4,2,1,50,0,0
111913,-100,4,2,2,50,0,0
113256,-100,4,2,1,50,0,0
113704,-100,4,2,2,50,0,0
114823,-100,4,2,1,50,0,0
115495,-100,4,2,2,50,0,0
116838,-100,4,2,1,50,0,0
119077,-100,4,2,2,50,0,0
120421,-100,4,2,1,50,0,0
120868,-100,4,2,2,50,0,0
121988,-100,4,2,1,50,0,0
122659,-100,4,2,2,50,0,0
124003,-100,4,2,1,50,0,0
126241,-100,4,2,2,50,0,0
126465,-100,4,2,1,50,0,0
129823,-100,4,2,2,50,0,0
130047,-100,4,2,1,50,0,0
133406,-100,4,2,2,50,0,0
133629,-100,4,2,1,50,0,0
136988,-100,4,2,2,50,0,0
137212,-100,4,2,1,50,0,0
138555,-100,4,2,2,50,0,0
139003,-100,4,2,1,50,0,0
140570,-100,4,2,2,50,0,0
140794,-100,4,2,1,50,0,0
144152,-100,4,2,2,50,0,0
144376,-100,4,2,1,50,0,0
147734,-100,4,2,2,50,0,0
147958,-100,4,2,1,50,0,0
151316,-100,4,2,2,50,0,0
151540,-100,4,2,1,50,0,0
154898,-100,4,2,2,50,0,0
155122,-100,4,2,1,50,0,0
156689,-100,4,2,2,50,0,0
156913,-100,4,2,1,50,0,0
158480,-100,4,2,2,50,0,0
158704,-100,4,2,1,50,0,0
165644,-100,4,1,1,50,0,0
165868,-100,4,2,1,50,0,0
172361,-100,4,2,1,30,0,0

[Colours]
Combo1 : 101,141,201
Combo2 : 172,172,89
Combo3 : 133,196,96
Combo4 : 64,128,128
Combo5 : 143,175,33
Combo6 : 216,156,116
Combo7 : 202,168,87
Combo8 : 184,148,175

[HitObjects]
256,192,420,1,8
256,192,868,2,0,B|320:228|404:200,1,140,4|8
348,84,1763,2,0,B|284:48|200:76,1,140,2|8
148,180,2659,2,0,B|112:252,1,70,2|0
72,288,3106,2,0,B|132:344,1,70,8|0
176,372,3554,2,0,B|200:304|304:284,1,140,2|8
396,240,4450,5,2
396,240,4897,1,8
344,124,5345,1,2
344,124,5793,2,0,B|300:64,1,70,8|0
240,52,6241,2,0,B|216:128|136:140,1,140,2|8
76,136,6912,2,0,B|148:280,1,140
156,324,7584,2,0,B|200:256|292:252,1,140,8|2
384,192,8479,5,8
464,96,8927,2,0,B|324:96,1,140,2|8
216,160,9823,2,0,B|176:104,1,70,2|0
120,132,10270,2,0,B|52:88,1,70,8|0
44,156,10718,2,0,B|84:232|72:304,1,140,2|8
184,352,11614,5,2
184,352,12062,1,8
256,248,12509,1,2
256,248,12957,1,8
372,296,13405,2,0,B|428:288|460:252|484:188|424:128,2,210,2|8|8
304,188,15196,6,0,B|152:140,1,140,4|8
72,224,16091,2,0,B|205:266,1,140,2|8
304,348,16987,2,0,B|328:316|376:308,2,70,2|0|8
244,328,17659,2,0,B|216:176,1,140
160,164,18330,6,0,B|228:128|240:32,2,140,8|2|8
104,52,19673,1,2
104,52,20121,1,8
72,176,20569,2,0,B|36:216|36:276|68:336|144:344,2,210,2|8|8
192,220,22360,6,0,B|336:156,1,140,2|8
428,228,23256,2,0,B|300:284,1,140,2|8
192,352,24151,2,0,B|184:304|152:280,2,70,2|0|8
244,316,24823,2,0,B|312:168,1,140
360,164,25494,6,0,B|284:132|276:32,2,140,8|2|8
404,44,26838,1,2
404,44,27285,1,8
452,160,27733,2,0,B|452:308,1,140,2|8
432,360,28405,2,0,B|400:288|300:264,1,140
272,304,29076,6,0,B|272:156,2,140,8|4|8
148,324,30420,2,0,B|148:180,1,140,2|8
200,68,31315,2,0,B|208:132|264:176|340:168|384:112,2,210,2|8|8
116,164,33106,6,0,B|64:232,1,70,4|0
120,264,33554,2,0,B|200:248|252:300,1,140,8|2
368,344,34450,1,8
444,244,34897,2,0,B|460:164|408:100|312:96,2,210,2|8|8
320,212,36688,6,0,B|240:204|212:120,1,140,4|8
216,68,37360,2,0,B|120:168,1,140
124,232,38032,2,0,B|124:304|64:352,2,140,8|2|8
216,320,39375,2,0,B|312:219,1,140,2|8
380,112,40270,6,0,B|368:80|328:56,1,70,4|0
280,32,40718,2,0,B|256:60|208:68,1,70,8|0
164,32,41166,2,0,B|88:176,1,140,2|8
144,272,42062,2,0,B|212:152|212:152|224:184|288:200,2,210,2|8|8
252,340,43853,6,0,B|324:340,1,70,2|0
348,284,44300,2,0,B|424:284,1,70,2|0
468,244,44748,2,0,B|492:176|440:88,1,140,2|4
328,92,45644,6,0,B|252:92,1,70,2|0
216,44,46091,2,0,B|136:44,1,70,2|0
96,84,46539,2,0,B|76:116|24:128,2,70,2|4|4
152,196,47435,6,0,B|152:352,1,140,2|2
256,264,48330,2,0,B|256:112,1,140,2|4
360,56,49226,2,0,B|360:204,1,140,2|8
424,204,49897,2,0,B|352:240|336:332,1,140,0|4
304,364,50569,6,0,B|148:364,1,140,8|4
80,268,51465,2,0,B|248:268,1,140,2|2
296,168,52360,2,0,B|148:168,2,140,4|2|2
376,68,53703,2,0,B|452:68,2,70,2|4|4
424,184,54599,6,0,B|416:268|328:312,1,140,2|2
236,348,55494,2,0,B|144:232,1,140,2|4
28,204,56390,2,0,B|40:120|140:88,1,140,8|2
144,48,57062,2,0,B|244:160,1,140,0|8
252,216,57733,2,0,B|336:216,2,70,8|8|4
196,328,58629,5,8
196,328,58853,2,0,B|108:304|96:208,1,140
40,228,59524,2,0,B|100:176|104:96,1,140,8|2
192,16,60420,2,0,B|192:88,1,70,8|0
320,84,61091,2,0,B|320:-12,1,70,0|8
408,107,61763,6,0,B|412:176|472:228,1,140,4|8
410,234,62435,2,0,B|404:304|316:328,1,140
256,320,63106,2,0,B|224:260|128:248,1,140,8|2
60,152,64002,2,0,B|136:152,1,70,8|0
188,40,64673,2,0,B|112:40,2,70,0|8|0
220,96,65345,6,0,B|252:64|336:56|380:104|384:180,2,210,4|8|8
264,216,67136,2,0,B|232:248|148:256|104:208|100:132,2,210,2|8|8
312,332,68927,6,0,B|456:332,1,140,4|8
488,280,69599,2,0,B|428:240|424:144,1,140
456,104,70270,2,0,B|308:104,1,140,8|4
196,64,71166,2,0,B|116:64,1,70,8|0
96,188,71838,2,0,B|180:188,1,70,8|8
48,236,72509,6,0,B|40:288|96:352|176:348|223:292,2,210,4|8|8
164,192,74300,2,0,B|152:112|204:48,1,140,2|8
260,64,74972,2,0,B|340:208,1,140
276,220,75644,6,0,B|256:292,1,70,8|0
312,312,76091,2,0,B|334:345|420:356|472:308|462:233,2,210,4|8|8
348,192,77882,2,0,B|360:112|308:48,1,140,2|8
252,64,78554,2,0,B|172:208,1,140
192,248,79226,6,0,B|160:328|84:340,1,140,8|4
56,216,80121,2,0,B|56:132,1,70,8|0
168,88,80793,2,0,B|168:168,1,70,0|8
228,180,81241,6,0,B|268:112|360:108,1,140
396,144,81912,2,0,B|472:144,1,70,8|0
400,252,82584,2,0,B|320:252,2,70,0|8|0
428,304,83256,2,0,B|388:364|300:364,1,140,4|8
252,336,83927,2,0,B|148:200,1,140
108,208,84599,6,0,B|36:208,1,70,8|0
88,92,85270,2,0,B|12:92,2,70,0|8|0
140,128,85942,2,0,B|184:64|280:72,1,140,2|8
268,196,86838,6,0,B|412:204|440:64,2,210,4|8|8
252,320,88629,2,0,B|24:320,2,210,2|8|8
352,244,90420,1,4
256,192,90532,12,0,92659
256,192,97584,6,0,B|396:192,1,140,4|8
324,88,98479,2,0,B|172:88,1,140,2|8
84,168,99375,2,0,B|160:168|208:268|140:340,1,210,2|0
276,340,100494,2,0,B|356:340,1,70,0|8
444,256,101166,5,2
444,256,101614,1,8
476,136,102062,2,0,B|400:124|348:184,1,140,2|8
224,200,102957,2,0,B|68:200,1,140,2|8
24,188,103629,2,0,B|80:144|72:56,1,140
128,36,104300,2,0,B|272:36,1,140,8|2
364,120,105196,5,8
364,120,105644,1,2
256,188,106091,2,0,B|256:264,1,70,8|0
272,320,106539,2,0,B|304:244|400:232,1,140,2|8
436,256,107211,2,0,B|480:104,1,140
412,112,107882,6,0,B|380:48|288:44,2,140,8|2|8
316,192,109226,1,2
316,192,109673,1,8
208,260,110121,2,0,B|116:136,1,140,2|8
68,116,110793,2,0,B|144:92|176:4,1,140
228,48,111465,6,0,B|304:48,2,70,8|0|2
256,172,112360,1,2
272,296,112808,2,0,B|352:280|380:192,1,140,2|4
376,84,113703,6,0,B|300:84|304:84,1,70,2|0
252,48,114151,2,0,B|180:48,1,70,2|0
124,76,114599,2,0,B|96:112|44:116,2,70,2|4|4
108,200,115494,6,0,B|168:340,1,140,2|2
224,348,116166,1,0
260,296,116390,2,0,B|292:224|392:212,1,140,2|4
432,108,117285,6,0,B|280:108,1,140,2|8
264,52,117957,2,0,B|224:120|120:124,1,140,0|4
104,164,118629,6,0,B|24:164,2,70,4|0|2
180,264,119524,1,2
244,372,119972,2,0,B|308:328|304:236,1,140,2|4
224,152,120867,6,0,B|292:104,1,70,2|0
344,124,121315,2,0,B|412:76,1,70,2|0
464,88,121763,2,0,B|504:108|516:148,2,70,2|4|4
408,200,122659,6,0,B|320:328,1,140,2|2
204,308,123554,2,0,B|283:192,1,140,2|4
160,164,124450,2,0,B|144:92|208:16|308:40,2,210,2|8|0
132,288,126241,6,0,B|280:288,1,140,4|8
316,332,126912,2,0,B|336:252|416:224,1,140
444,180,127584,1,8
400,64,128032,2,0,B|168:64,2,210,2|8|8
316,160,129823,6,0,B|284:228|196:244,1,140,4|8
160,200,130494,2,0,B|160:276|80:328,1,140
32,308,131166,1,8
32,180,131614,2,0,B|212:44,2,210,2|8|8
140,244,133405,5,4
244,312,133853,2,0,B|332:312,1,70,8|0
396,216,134524,2,0,B|480:216,1,70,0|8
484,156,134972,2,0,B|464:80|360:56,1,140
336,28,135644,2,0,B|256:28,1,70,8|0
168,112,136315,2,0,B|92:112,2,70,0|8|0
204,164,136987,6,0,B|192:280|48:312,2,210,4|8|8
276,60,138778,2,0,B|308:24|400:4|448:80|448:140,2,210,4|8|8
320,180,140569,6,0,B|280:256|188:272,1,140,4|8
188,324,141241,2,0,B|64:116,1,210,0|8
168,52,142360,1,2
248,152,142808,2,0,B|324:152,1,70,8|0
396,56,143479,2,0,B|472:56,1,70,0|8
460,184,144151,6,0,B|436:260|348:272,1,140,4|8
356,332,144823,2,0,B|136:332,1,210,0|8
64,236,145942,1,2
132,132,146390,2,0,B|216:132,1,70,8|0
304,60,147062,2,0,B|384:60,2,70,0|8|0
292,120,147733,6,0,B|280:216|364:268|452:228,2,210,4|8|8
224,228,149524,2,0,B|200:316|84:328|36:248,2,210,2|8|8
120,160,151315,6,0,B|152:88|232:72,1,140,4|8
272,32,151987,2,0,B|280:120|360:164|424:140,1,210,0|8
480,152,152882,2,0,B|416:288,1,140
312,344,153778,2,0,B|308:264|216:216,1,140,8|8
176,236,154450,6,0,B|220:88,1,140,8|4
320,32,155345,2,0,B|392:32,1,70,8|0
408,156,156017,2,0,B|480:156,2,70,0|8|0
364,200,156688,2,0,B|344:272|248:296,1,140,4|0
220,336,157360,2,0,B|208:264|120:240,1,140,0|8
68,220,158032,1,8
92,96,158479,6,0,B|248:96,1,140,4|8
260,220,159375,1,2
260,220,159823,1,8
288,344,160270,6,0,B|312:312|364:308,1,70,2|0
408,292,160718,2,0,B|428:220,1,70,8|0
436,160,161166,2,0,B|364:152|324:72,1,140,2|8
208,40,162062,5,2
208,40,162509,1,8
96,96,162957,2,0,B|180:224,1,140,2|8
136,332,163853,6,0,B|176:332|220:304|224:304,1,70,2|0
264,304,164300,2,0,B|272:260|328:240,1,70,8|0
324,188,164748,2,0,B|408:188|456:116,2,140,2|8|4
256,80,166091,5,8
140,128,166539,2,0,B|-4:128,1,140,2|8
68,232,167435,2,0,B|108:228|144:252,1,70,2|0
200,256,167882,2,0,B|216:340|304:368,2,140,8|2|8
256,144,169226,6,0,B|344:144,1,70,2|0
356,88,169673,2,0,B|428:88,1,70,8|0
468,136,170121,2,0,B|484:212|440:272,1,140,2|8
320,232,171017,5,2
320,232,171465,1,8
220,312,171912,2,0,B|200:284|160:272,1,70,2|0
116,232,172360,2,0,B|192:208|216:112,1,140,8|2
